Ссылка на приватное зеркало нашего сайта всего за 1$. Внимание количество ограничено!!!

2 сезон

iTunes

1 сезон

1

2 сезон

2 сезон

iTunes

1 сезон

RePack

30

Новинка

ВАЖНО

ИГРА 18+

pack

RePack

MK11
pack

Забери бонус

RePack

jed

!!Акция!!

Alien_Rage

RePack

fifa19

RePack

Assassins Creed: Odyssey

RePack

NEED FOR SPEED™ PAYBACK

4 сезон

9 сезон

Бесстыжие 9 сезон

Все сериалы

все сериалы на PB.wtf

RePack

FAR CRY 5
  

Все еще король / Still the King / Сезон: 1 / Серии 1-13 из 13 (Potsy Ponciroli, Джон Полл / Jon Poll, Лев Л. Спиро / Lev L. Spiro) [2016 , США, комедия, WEB-DLRip-AVC, MVO] [BaibaKo] pb.wtf

Все еще король через торрент pb.wtf

Размер: 5.18 GB | Добавлен: 4 года 3 мес. назад | Торрент скачан:19 раз
Скачать  

16-07-2016 02:07 Все еще король Скачать торрент  

Все еще король / Still the King


  • Год выпуска: 2016
  • Страна: США
  • Жанр: комедия
  • Продолжительность: 00:22:05 (Серия)
  • Перевод: Профессиональный многоголосый закадровый) [BaibaKo]
  • Режиссер: Potsy Ponciroli, Джон Полл / Jon Poll, Лев Л. Спиро / Lev L. Spiro
  • В ролях:

    Мэдисон Исман (Charlotte), Билли Рэй Сайрус (Vernon Brownmule), Джои Лорен Эдамс (Debbie Lynn Cooke), Трэвис Николсон (Walt), Jon Sewell (Ronnie), Лесли Дэвид Бэйкер (Curtis), Джастин Дрей (Denny Billions aka Starman), Кевин П. Фарли (Mitch Doily), Джозеф Харо (Dallas), Крис Крофтон (Catfish), Боб Пенни (Harold), Джошуа Чайлдз (Carl)


  • Комедия расскажет о похождениях бывшего кантри-певца, пьяницы и разгильдяя Вернона Брауна. После двадцати лет прозябания на задворках музыкальной индустрии, Вернон приезжает в Неваду, чтобы сделать карьеру лучшего имитатора Элвиса Пресли. Но об этом плане приходится забыть, когда Вернон устраивает пьяный дебош и врезается в здание церкви Лафлина, за что приговаривается к общественным работам. Чтобы избежать наказания, Вернону приходит в голову "гениальная идея" - выдать себя за нового пастора.
  • Рейтинг:



  • Качество: WEB-DLRip-AVC
  • Формат: :MPEG-4
  • Видео кодек: AVC
  • Аудио кодек: AC3
  • Видео: 1024x576 (16:9), 2200 kbps, 23,976 fps, 0,156 bpp
  • Аудио №1: русский / 2.0 / 48 kHz / 192 kbps / 16 bit |[BaibaKo]|
  • Аудио №2: английский / 2.0 / 48 kHz / 192 kbps / 16 bit
  • Релиз от: GEKADOL

    Код:

    Внимание! Раздача ведётся путём добавления новых серий; при каждом добавлении создаётся новый торрент. Чтобы начать докачку новой серии, пользователям необходимо сделать следующее:
    (1) остановить скачивание,
    (2) удалить старый торрент у себя из клиента (старые серии удалять не надо),
    (3) скачать новый торрент и запустить его у себя в клиенте вместо старого, при этом указать клиенту путь в старую папку куда и должно происходить скачивание новых серий.
    Ваш клиент при этом должен произвести хеширование (проверку) старой папки (если не производит сам - помогите ему сделать это), и будет докачивать только те серии которых у вас ещё нет. Старые серии при этом не удаляются, а продолжают раздаваться!
    Eсли вы уже удалили старые серии, то предотвратить повторную закачку старых серий можно, отжав галочку в соответствующих местах при запуске нового торрента. По возможности, желательно не удалять старые серии как можно дольше чтобы релизёр не столько продолжал раздавать старые серии, а смог сконцентрироваться на новых.


    Код:

    General
    Complete name                            : H:\Всё ещё Король (Still the King)\Still.the.King.s01e07.WEB-DLRip-AVC.Rus.Eng.BaibaKo.tv.mp4
    Format                                   : MPEG-4
    Format profile                           : Base Media
    Codec ID                                 : isom
    File size                                : 409 MiB
    Duration                                 : 22mn 5s
    Overall bit rate                         : 2 589 Kbps
    Writing application                      : XviD4PSP 7.0.277 DAILY
    hdvd                                     : 1
    iTunMOVI                                 : <?xml version="1.0" encoding="UTF-8"?> / <!DOCTYPE plist PUBLIC "-//Apple//DTD PLIST 1.0//EN" "http://www.apple.com/DTDs/PropertyList-1.0.dtd"> / <plist version="1.0"> / <dict> /     <key>encoding_info</key> /     <array> /         <dict> /             <key>name</key> /             <string>MATROSKA</string> /         </dict> /         <dict> /             <key>name</key> /             <string><![CDATA[WEBM > MP4 Произвольный / H264 > X264 CBR 2200kbps HQ / AC3 > AC3 CBR 192kbps / AC3 > AC3 CBR 192kbps]]></string> /         </dict> /     </array> / </dict> / </plist>

    Video
    ID                                       : 1
    Format                                   : AVC
    Format/Info                              : Advanced Video Codec
    Format profile                           : High@L4.1
    Format settings, CABAC                   : Yes
    Format settings, ReFrames                : 4 frames
    Codec ID                                 : avc1
    Codec ID/Info                            : Advanced Video Coding
    Duration                                 : 22mn 5s
    Bit rate                                 : 2 200 Kbps
    Width                                    : 1 024 pixels
    Height                                   : 576 pixels
    Display aspect ratio                     : 16:9
    Frame rate mode                          : Constant
    Frame rate                               : 23.976 fps
    Color space                              : YUV
    Chroma subsampling                       : 4:2:0
    Bit depth                                : 8 bits
    Scan type                                : Progressive
    Bits/(Pixel*Frame)                       : 0.156
    Stream size                              : 348 MiB (85%)
    Writing library                          : x264 core 148 r2705M 3f5ed56
    Encoding settings                        : cabac=1 / ref=3 / deblock=1:-1:-1 / analyse=0x3:0x133 / me=hex / subme=7 / psy=1 / psy_rd=1.00:0.20 / mixed_ref=1 / me_range=16 / chroma_me=1 / trellis=1 / 8x8dct=1 / cqm=0 / deadzone=21,11 / fast_pskip=1 / chroma_qp_offset=-3 / threads=5 / lookahead_threads=1 / sliced_threads=0 / nr=0 / decimate=1 / interlaced=0 / bluray_compat=0 / constrained_intra=0 / bframes=3 / b_pyramid=2 / b_adapt=2 / b_bias=0 / direct=3 / weightb=1 / open_gop=0 / weightp=2 / keyint=230 / keyint_min=23 / scenecut=40 / intra_refresh=0 / rc_lookahead=40 / rc=cbr / mbtree=1 / bitrate=2200 / ratetol=1.0 / qcomp=0.60 / qpmin=0 / qpmax=69 / qpstep=4 / vbv_maxrate=2200 / vbv_bufsize=30000 / nal_hrd=none / filler=0 / ip_ratio=1.40 / aq=1:1.00

    Audio #1
    ID                                       : 2
    Format                                   : AC-3
    Format/Info                              : Audio Coding 3
    Mode extension                           : CM (complete main)
    Codec ID                                 : ac-3
    Duration                                 : 22mn 5s
    Bit rate mode                            : Constant
    Bit rate                                 : 192 Kbps
    Channel(s)                               : 2 channels
    Channel positions                        : Front: L R
    Sampling rate                            : 48.0 KHz
    Bit depth                                : 16 bits
    Compression mode                         : Lossy
    Stream size                              : 30.3 MiB (7%)
    Language                                 : Russian

    Audio #2
    ID                                       : 3
    Format                                   : AC-3
    Format/Info                              : Audio Coding 3
    Mode extension                           : CM (complete main)
    Codec ID                                 : ac-3
    Duration                                 : 22mn 5s
    Bit rate mode                            : Constant
    Bit rate                                 : 192 Kbps
    Channel(s)                               : 2 channels
    Channel positions                        : Front: L R
    Sampling rate                            : 48.0 KHz
    Bit depth                                : 16 bits
    Compression mode                         : Lossy
    Stream size                              : 30.3 MiB (7%)
    Language                                 : English


    Скриншоты:
    скриншот   скриншот   скриншот   скриншот   скриншот   скриншот   скриншот  
    скриншот  

    Раздача ведётся путём добавления новых серий. Добавлена 13 серия (17.08.2016).Просьба перекачать торрент файл.

    pb.wtf



  • Скачать Все еще король через торрент http://i3.imageban.ru/out/2016/07/16/b1fb0c562b1bb81037a3b21f8a8da61a.jpg Скачать фильм Все еще король через торрент бесплантно в хорошем качестве qw.png Комедия расскажет о похождениях бывшего кантри-певца, пьяницы и разгильдяя Вернона Брауна. После двадцати лет прозябания на ... 8 10 3
    Info! Золотая раздача, скачанное не засчитывается.
    Торрент: Зарегистрирован [2016-08-17 11:55] · скачан: 19 раз
    Статус: √ проверено
    Размер: 5.18 GB
    Как cкачать? Как скачать Все еще король через торрент | qTorrent

    % Раздел Тема Автор DL S | L
    Зарубежные сериалы [ 5.22 GB ] Все еще король / Still the King / Сезон: 2 / Серии 1-6 из 13 [2017 WEB-DLRip 1080p] MVO [BaibaKo] GEKADOL Скачать
    1 | 0


    Последний раз редактировалось: GEKADOL (2016-08-17 11:55), всего редактировалось 1 раз

    28-11-2019 20:33  

    Отключить всю рекламу на сайте

    10-08-2016 19:26 Все еще король Скачать торрент  

    скорости нетpb.wtf



    17-07-2017 11:53 Все еще король Скачать торрент  

    Встаньте кто нибудь на раздачуpb.wtf



    17-07-2017 11:53 Все еще король Скачать торрент  

    GEKADOL, Ауpb.wtf



      Дорогой пользователь! Огромная просьба, поблагодарите релизера, оцените раздачу и оставьте свои комментарий, если Вы скачали Все еще король через торрент бесплатно! Внесите свою лепту в развитие PiratBit!
      Комментировать посты могут только пользователи прошедшие не сложную регистрацию
      Показать сообщения:    

      Все еще король через торрент
      Скачать бесплатно Все еще король
      Все еще король скачать торрент
      Все еще король смотреть онлайн
      Cкачать фильм Все еще король бесплатно
      Все еще король скачать торрент в хорошем качестве
      Все еще король смотреть онлайн бесплатно в хорошем качестве


      Вы не можете начинать темы
      Вы не можете отвечать на сообщения
      Вы не можете редактировать свои сообщения
      Вы не можете удалять свои сообщения
      Вы не можете голосовать в опросах
      Вы не можете прикреплять файлы к сообщениям
      Вы можете скачивать файлы