Marvel's Avengers Deluxe Edition (супер цена) 159р. Внимание количество ограничено!!!

2 сезон

iTunes

iTunes

1

iTunes

iTunes

iTunes

WEBRip

iTunes

30
pack

Новость дня

ВАЖНО

!!Акция!!

Alien_RageХит недели

RePack

Horizon Zero Dawn

ИГРА 18+

pack

RePack

jed

!!Акция!!

Alien_Rage

RePack

fifa19

RePack

Assassins Creed: Odyssey

RePack

NEED FOR SPEED™ PAYBACK

4 сезон

9 сезон

Бесстыжие 9 сезон

Все сериалы

все сериалы на PB.wtf

RePack

FAR CRY 5
  

Рэй Донован / Ray Donovan / Сезон: 4 / Серии 1-12 из 12 (Майкл Аппендаль / Michael Uppendahl, Дэниэл Эттиэс / Daniel Attias, Джон Дал / John Dahl) [2015, США, драма, криминал, WEBRip-AVC, HDTVRip-AVC] MVO [NewStudio] pb.wtf

Рэй Донован через торрент pb.wtf

Размер: 11.92 GB | Добавлен: 3 года 11 мес. назад | Торрент скачан:411 раз
Скачать  

16-07-2016 02:35 Рэй Донован Скачать торрент  


Рэй Донован / Ray Donovan

«Никто не должен знать...»


  • Год выпуска: 2016
  • Страна: США
  • Жанр: драма, криминал
  • Продолжительность: 00:51:41 (Серия)
  • Перевод: Профессиональный многоголосый закадровый
  • В ролях:

    Лив Шрайбер (Ray Donovan), Паула Малкомсон (Abby Donovan), Эдди Марсан (Terry Donovan), Дэш Майок (Bunchy Donovan), Джон Войт (Mickey Donovan), Стивен Бауэр (Avi), Кэтрин Менниг (Lena), Пуч Холл (Daryll), Кэррис Дорси (Bridget Donovan), Девон Бэгби (Conor Donovan), Эллиотт Гулд (Ezra Goodman), Уильям Стэнфорд Дэвис (Potato Pie)


  • picРэй Донован - первоклассный специалист по устранению проблем любой сложности. Его клиенты - самые знаменитые и влиятельные люди Лос-Анджелеса, для которых он исполняет практически любые задания. Единственные проблемы, которые Рэю не под силу уладить, возникают в его собственной семье в Южном Бостоне. Одна из них - освобожденный из тюрьмы папаша-гангстер, угрожающий благополучию семейства. Помимо этого, один из братьев Рэя никак не может прийти в себя после совершенного над ним насилия, а второй страдает от болезни Паркинсона. Рэю Доновану предстоит не только помочь близким, но и защитить собственную жену и детей от своего коварного отца, который жаждет вновь занять позицию главы семьи.
  • Рейтинг:



  • Качество: WEBRip-AVC, HDTVRip-AVC
  • Формат: :MPEG-4
  • Видео кодек: AVC
  • Аудио кодек: AC3
  • Видео: 1024x576 (16:9), 2200 kbps, 23,976 fps, 0,156 bpp
  • Аудио №1: русский / 5.1 / 48 kHz / 384 kbps / 16 bit |[NewStudio]|
  • Аудио №2: английский / 5.1 / 48 kHz / 384 kbps / 16 bit
  • Релиз от: GEKADOL

    Код:

    Внимание! Раздача ведётся путём добавления новых серий; при каждом добавлении создаётся новый торрент. Чтобы начать докачку новой серии, пользователям необходимо сделать следующее:
    (1) остановить скачивание,
    (2) удалить старый торрент у себя из клиента (старые серии удалять не надо),
    (3) скачать новый торрент и запустить его у себя в клиенте вместо старого, при этом указать клиенту путь в старую папку куда и должно происходить скачивание новых серий.
    Ваш клиент при этом должен произвести хеширование (проверку) старой папки (если не производит сам - помогите ему сделать это), и будет докачивать только те серии которых у вас ещё нет. Старые серии при этом не удаляются, а продолжают раздаваться!
    Eсли вы уже удалили старые серии, то предотвратить повторную закачку старых серий можно, отжав галочку в соответствующих местах при запуске нового торрента. По возможности, желательно не удалять старые серии как можно дольше чтобы релизёр не столько продолжал раздавать старые серии, а смог сконцентрироваться на новых.


    Код:

    General
    Complete name                            : H:\РЭЙ (Сезон 4)\Ray.Donovan.s04e02.WEBRip-AVC.NewStudio.TV.mp4
    Format                                   : MPEG-4
    Format profile                           : Base Media
    Codec ID                                 : isom
    File size                                : 1.07 GiB
    Duration                                 : 51mn 41s
    Overall bit rate                         : 2 970 Kbps
    Writing application                      : XviD4PSP 7.0.277 DAILY
    hdvd                                     : 1
    iTunMOVI                                 : <?xml version="1.0" encoding="UTF-8"?> / <!DOCTYPE plist PUBLIC "-//Apple//DTD PLIST 1.0//EN" "http://www.apple.com/DTDs/PropertyList-1.0.dtd"> / <plist version="1.0"> / <dict> /     <key>encoding_info</key> /     <array> /         <dict> /             <key>name</key> /             <string>MATROSKA</string> /         </dict> /         <dict> /             <key>name</key> /             <string><![CDATA[WEBM > MP4 Произвольный / H264 > X264 CBR 2200kbps HQ / AC3 > AC3 CBR 384kbps / AC3 > AC3 CBR 384kbps]]></string> /         </dict> /     </array> / </dict> / </plist>

    Video
    ID                                       : 1
    Format                                   : AVC
    Format/Info                              : Advanced Video Codec
    Format profile                           : High@L4.1
    Format settings, CABAC                   : Yes
    Format settings, ReFrames                : 4 frames
    Codec ID                                 : avc1
    Codec ID/Info                            : Advanced Video Coding
    Duration                                 : 51mn 41s
    Bit rate                                 : 2 200 Kbps
    Width                                    : 1 024 pixels
    Height                                   : 576 pixels
    Display aspect ratio                     : 16:9
    Frame rate mode                          : Constant
    Frame rate                               : 23.976 fps
    Color space                              : YUV
    Chroma subsampling                       : 4:2:0
    Bit depth                                : 8 bits
    Scan type                                : Progressive
    Bits/(Pixel*Frame)                       : 0.156
    Stream size                              : 812 MiB (74%)
    Writing library                          : x264 core 148 r2705M 3f5ed56
    Encoding settings                        : cabac=1 / ref=3 / deblock=1:-1:-1 / analyse=0x3:0x133 / me=hex / subme=7 / psy=1 / psy_rd=1.00:0.20 / mixed_ref=1 / me_range=16 / chroma_me=1 / trellis=1 / 8x8dct=1 / cqm=0 / deadzone=21,11 / fast_pskip=1 / chroma_qp_offset=-3 / threads=5 / lookahead_threads=1 / sliced_threads=0 / nr=0 / decimate=1 / interlaced=0 / bluray_compat=0 / constrained_intra=0 / bframes=3 / b_pyramid=2 / b_adapt=2 / b_bias=0 / direct=3 / weightb=1 / open_gop=0 / weightp=2 / keyint=230 / keyint_min=23 / scenecut=40 / intra_refresh=0 / rc_lookahead=40 / rc=cbr / mbtree=1 / bitrate=2200 / ratetol=1.0 / qcomp=0.60 / qpmin=0 / qpmax=69 / qpstep=4 / vbv_maxrate=2200 / vbv_bufsize=30000 / nal_hrd=none / filler=0 / ip_ratio=1.40 / aq=1:1.00
    Language                                 : English

    Audio #1
    ID                                       : 2
    Format                                   : AC-3
    Format/Info                              : Audio Coding 3
    Mode extension                           : CM (complete main)
    Codec ID                                 : ac-3
    Duration                                 : 51mn 41s
    Bit rate mode                            : Constant
    Bit rate                                 : 384 Kbps
    Channel(s)                               : 6 channels
    Channel positions                        : Front: L C R, Side: L R, LFE
    Sampling rate                            : 48.0 KHz
    Bit depth                                : 16 bits
    Compression mode                         : Lossy
    Stream size                              : 142 MiB (13%)
    Title                                    : NewStudio.TV
    Language                                 : Russian

    Audio #2
    ID                                       : 3
    Format                                   : AC-3
    Format/Info                              : Audio Coding 3
    Mode extension                           : CM (complete main)
    Codec ID                                 : ac-3
    Duration                                 : 51mn 41s
    Bit rate mode                            : Constant
    Bit rate                                 : 384 Kbps
    Channel(s)                               : 6 channels
    Channel positions                        : Front: L C R, Side: L R, LFE
    Sampling rate                            : 48.0 KHz
    Bit depth                                : 16 bits
    Compression mode                         : Lossy
    Stream size                              : 142 MiB (13%)
    Language                                 : English



    Скриншоты:
    скриншот   скриншот   скриншот   скриншот   скриншот   скриншот   скриншот  
    скриншот  

    Раздача ведётся путём добавления новых серий. Добавлена 12 серия (21.09.2016).Просьба перекачать торрент файл.

    pb.wtf



  • Скачать Рэй Донован через торрент http://pic1.kartinco.top/images/10/64ull.jpg Скачать фильм Рэй Донован через торрент бесплантно в хорошем качестве qw.png picРэй Донован - первоклассный специалист по устранению проблем любой сложности. Его клиенты - самые знаменитые и влиятельные люди ... 9.8 10 41
    Info! Золотая раздача, скачанное не засчитывается.
    Торрент: Зарегистрирован [2016-09-21 01:49] · скачан: 411 раз
    Статус: √ проверено
    Размер: 11.92 GB
    Как cкачать? Как скачать Рэй Донован через торрент | qTorrent

    % Раздел Тема Автор DL S | L
    Рэй Донован [ 7.25 GB ] Рэй Донован / Ray Donovan / 4 сезон / серии 1-12 из 12 [2016 WEBRip ] Amedia point.td Скачать
    1 | 0


    Последний раз редактировалось: GEKADOL (2016-09-21 01:49), всего редактировалось 3 раз(а)

    28-11-2019 20:33  

    Отключить всю рекламу на сайте

    25-08-2016 12:34 Рэй Донован Скачать торрент  

    Не качается!!! Пишет: Предыдущий том не смонтирован!!!!
    Можно нормальную раздачу!!!!pb.wtf



    26-08-2016 13:46 Рэй Донован Скачать торрент  

    Кажется, кто-то рак....pb.wtf



    16-09-2016 08:55 Рэй Донован Скачать торрент  

    Это последний сезон ?pb.wtf



    19-09-2016 05:26 Рэй Донован Скачать торрент  

    gara4227 писал(а):

    Это последний сезон ?

    Нет. Продлен на 5 сезон. Ориентировочно июнь 2017 года. pb.wtf



    21-09-2016 04:48 Рэй Донован Скачать торрент  

    о годнота и качество, и озвучка, сенкс)pb.wtf



    21-09-2016 09:25 Рэй Донован Скачать торрент  

    DavidLynch писал(а):

    о годнота и качество, и озвучка, сенкс)

    pb.wtf



    30-09-2016 17:49 Рэй Донован Скачать торрент  

    в 720p хотелось бы)pb.wtf



    12-10-2016 12:29 Рэй Донован Скачать торрент  

    Не знаю как 4-й сезон, я его его не смотрел. но предыдущие 3 я бы назвал "Микки Донован" =)pb.wtf



    25-11-2016 08:21 Рэй Донован Скачать торрент  

    фильма шикарнаяpb.wtf



      Дорогой пользователь! Огромная просьба, поблагодарите релизера, оцените раздачу и оставьте свои комментарий, если Вы скачали Рэй Донован через торрент бесплатно! Внесите свою лепту в развитие PiratBit!
      Комментировать посты могут только пользователи прошедшие не сложную регистрацию
      Показать сообщения:    

      Рэй Донован через торрент
      Скачать бесплатно Рэй Донован
      Рэй Донован скачать торрент
      Рэй Донован смотреть онлайн
      Cкачать фильм Рэй Донован бесплатно
      Рэй Донован скачать торрент в хорошем качестве
      Рэй Донован смотреть онлайн бесплатно в хорошем качестве


      Вы не можете начинать темы
      Вы не можете отвечать на сообщения
      Вы не можете редактировать свои сообщения
      Вы не можете удалять свои сообщения
      Вы не можете голосовать в опросах
      Вы не можете прикреплять файлы к сообщениям
      Вы можете скачивать файлы