Ссылка на приватное зеркало нашего сайта всего за 1$. Внимание количество ограничено!!!

2 сезон

iTunes

1 сезон

1

2 сезон

2 сезон

iTunes

1 сезон

RePack

30

Ultimate

ВАЖНО

ИГРА 18+

pack

RePack

MK11
pack

Забери бонус

RePack

jed

!!Акция!!

Alien_Rage

RePack

fifa19

RePack

Assassins Creed: Odyssey

RePack

NEED FOR SPEED™ PAYBACK

4 сезон

9 сезон

Бесстыжие 9 сезон

Все сериалы

все сериалы на PB.wtf

RePack

FAR CRY 5
  

Обвиняемая / Guilt / Сезон: 1 / Серии 1-10 из 10 (Майрзи Алмас / Mairzee Almas, Гэри Фледер / Gary Fleder, Элизабет Аллен / Elizabeth Allen Rosenbaum) [2016, США, драма, WEB-DLRip-AVC, Профессиональный многоголосый закадровый] [BaibaKo] pb.wtf

Обвиняемая через торрент pb.wtf

Размер: 8.32 GB | Добавлен: 4 года 3 мес. назад | Торрент скачан:32 раза
Скачать  

16-07-2016 02:55 Обвиняемая Скачать торрент  

Обвиняемая / Guilt


  • Год выпуска: 2016
  • Страна: США
  • Жанр: драма
  • Продолжительность: 00:42:38 (Серия)
  • Перевод: Профессиональный многоголосый закадровый [BaibaKo]
  • Режиссер: Майрзи Алмас / Mairzee Almas, Гэри Фледер / Gary Fleder, Элизабет Аллен / Elizabeth Allen Rosenbaum
  • В ролях:

    Эмили Треймейн (Natalie Atwood), Хорхе Леон Мартинес (Police Offcer Tom), Кристиан Солимено (Detective Sergeant Alex Bruno), Билли Зейн (Stan Gutterie), Дэйзи Хэд (Grace Atwood), Наоми Райан (Gwendolyn Hall), Симона Браун (Roz Walters), Захари Фолл (Luc Pascal), Кевин Дж. Райан (Patrick Ryan), Сэм Кэссиди (Prince Theo), Робби Ги (DCI Pike), Эмбер Джин Роуэн (Kaley)


  • Молодая американка в Лондоне становится главной подозреваемой в жестоком убийстве соседки по комнате. Чем дальше продвигается следствие, тем больше возникает вопросов - действительно ли главная героиня лишь юная и наивная девушка, чьи неблаговидные поступки были излишне раздуты таблоидами, или она социопатка, жестоко убившая соседку. Даже родная сестра главной героини, приехавшая в Лондон, чтобы оказать поддержку, начинает задаваться вопросом, насколько хорошо она знает свою младшую сестру по мере того, как все новая и новая отвратительная правда о ней выходит наружу.
  • Рейтинг:



  • Качество: WEB-DLRip-AVC
  • Формат: :MPEG-4
  • Видео кодек: AVC
  • Аудио кодек: AC3
  • Видео: 1024x576 (16:9), 2200 kbps, 23,976 fps, 0,156 bpp
  • Аудио №1: русский / 5.1 / 48 kHz / 384 kbps / 16 bit |[BaibaKo]|
    Аудио №2: английский / 5.1 / 48 kHz / 384 kbps / 16 bit
  • Релиз от: GEKADOL

    Код:

    Внимание! Раздача ведётся путём добавления новых серий; при каждом добавлении создаётся новый торрент. Чтобы начать докачку новой серии, пользователям необходимо сделать следующее:
    (1) остановить скачивание,
    (2) удалить старый торрент у себя из клиента (старые серии удалять не надо),
    (3) скачать новый торрент и запустить его у себя в клиенте вместо старого, при этом указать клиенту путь в старую папку куда и должно происходить скачивание новых серий.
    Ваш клиент при этом должен произвести хеширование (проверку) старой папки (если не производит сам - помогите ему сделать это), и будет докачивать только те серии которых у вас ещё нет. Старые серии при этом не удаляются, а продолжают раздаваться!
    Eсли вы уже удалили старые серии, то предотвратить повторную закачку старых серий можно, отжав галочку в соответствующих местах при запуске нового торрента. По возможности, желательно не удалять старые серии как можно дольше чтобы релизёр не столько продолжал раздавать старые серии, а смог сконцентрироваться на новых.


    Код:

    General
    Complete name                            : H:\Обвиняемая (Guilt)\Guilt.s01e03.WEB-DLRip-AVC.Rus.Eng.BaibaKo.tv.mp4
    Format                                   : MPEG-4
    Format profile                           : Base Media
    Codec ID                                 : isom
    File size                                : 907 MiB
    Duration                                 : 42mn 38s
    Overall bit rate                         : 2 973 Kbps
    Writing application                      : XviD4PSP 7.0.276 DAILY
    hdvd                                     : 1
    iTunMOVI                                 : <?xml version="1.0" encoding="UTF-8"?> / <!DOCTYPE plist PUBLIC "-//Apple//DTD PLIST 1.0//EN" "http://www.apple.com/DTDs/PropertyList-1.0.dtd"> / <plist version="1.0"> / <dict> /     <key>encoding_info</key> /     <array> /         <dict> /             <key>name</key> /             <string>MATROSKA</string> /         </dict> /         <dict> /             <key>name</key> /             <string><![CDATA[WEBM > MP4 Произвольный / H264 > X264 CBR 2200kbps HQ / AC3 > AC3 CBR 384kbps / AC3 > AC3 CBR 384kbps]]></string> /         </dict> /     </array> / </dict> / </plist>

    Video
    ID                                       : 1
    Format                                   : AVC
    Format/Info                              : Advanced Video Codec
    Format profile                           : High@L4.1
    Format settings, CABAC                   : Yes
    Format settings, ReFrames                : 4 frames
    Codec ID                                 : avc1
    Codec ID/Info                            : Advanced Video Coding
    Duration                                 : 42mn 38s
    Bit rate                                 : 2 200 Kbps
    Width                                    : 1 024 pixels
    Height                                   : 576 pixels
    Display aspect ratio                     : 16:9
    Frame rate mode                          : Constant
    Frame rate                               : 23.976 fps
    Color space                              : YUV
    Chroma subsampling                       : 4:2:0
    Bit depth                                : 8 bits
    Scan type                                : Progressive
    Bits/(Pixel*Frame)                       : 0.156
    Stream size                              : 671 MiB (74%)
    Writing library                          : x264 core 148 r2705M 3f5ed56
    Encoding settings                        : cabac=1 / ref=3 / deblock=1:-1:-1 / analyse=0x3:0x133 / me=hex / subme=7 / psy=1 / psy_rd=1.00:0.20 / mixed_ref=1 / me_range=16 / chroma_me=1 / trellis=1 / 8x8dct=1 / cqm=0 / deadzone=21,11 / fast_pskip=1 / chroma_qp_offset=-3 / threads=5 / lookahead_threads=1 / sliced_threads=0 / nr=0 / decimate=1 / interlaced=0 / bluray_compat=0 / constrained_intra=0 / bframes=3 / b_pyramid=2 / b_adapt=2 / b_bias=0 / direct=3 / weightb=1 / open_gop=0 / weightp=2 / keyint=230 / keyint_min=23 / scenecut=40 / intra_refresh=0 / rc_lookahead=40 / rc=cbr / mbtree=1 / bitrate=2200 / ratetol=1.0 / qcomp=0.60 / qpmin=0 / qpmax=69 / qpstep=4 / vbv_maxrate=2200 / vbv_bufsize=30000 / nal_hrd=none / filler=0 / ip_ratio=1.40 / aq=1:1.00

    Audio #1
    ID                                       : 2
    Format                                   : AC-3
    Format/Info                              : Audio Coding 3
    Mode extension                           : CM (complete main)
    Codec ID                                 : ac-3
    Duration                                 : 42mn 38s
    Bit rate mode                            : Constant
    Bit rate                                 : 384 Kbps
    Channel(s)                               : 6 channels
    Channel positions                        : Front: L C R, Side: L R, LFE
    Sampling rate                            : 48.0 KHz
    Bit depth                                : 16 bits
    Compression mode                         : Lossy
    Stream size                              : 117 MiB (13%)
    Language                                 : Russian

    Audio #2
    ID                                       : 3
    Format                                   : AC-3
    Format/Info                              : Audio Coding 3
    Mode extension                           : CM (complete main)
    Codec ID                                 : ac-3
    Duration                                 : 42mn 38s
    Bit rate mode                            : Constant
    Bit rate                                 : 384 Kbps
    Channel(s)                               : 6 channels
    Channel positions                        : Front: L C R, Side: L R, LFE
    Sampling rate                            : 48.0 KHz
    Bit depth                                : 16 bits
    Compression mode                         : Lossy
    Stream size                              : 117 MiB (13%)
    Language                                 : English


    Скриншоты:
    скриншот   скриншот   скриншот   скриншот   скриншот   скриншот   скриншот  
    скриншот  

    Раздача ведётся путём добавления новых серий. Добавлена 10 серия (24.08.2016).Просьба перекачать торрент файл.

    pb.wtf



  • Скачать Обвиняемая через торрент http://i80.fastpic.ru/big/2016/0716/28/dddd39cd88d96a884053150be3cbe628.jpg Скачать фильм Обвиняемая через торрент бесплантно в хорошем качестве qw.png Молодая американка в Лондоне становится главной подозреваемой в жестоком убийстве соседки по комнате. Чем дальше продвигается ... 9.3 10 7
    Info! Золотая раздача, скачанное не засчитывается.
    Торрент: Зарегистрирован [2016-08-24 13:54] · скачан: 32 раз
    Статус: √ проверено
    Размер: 8.32 GB
    Как cкачать? Как скачать Обвиняемая через торрент | qTorrent



    Последний раз редактировалось: GEKADOL (2016-08-24 13:54), всего редактировалось 4 раз(а)

    28-11-2019 20:33  

    Отключить всю рекламу на сайте

    30-07-2016 13:11 Обвиняемая Скачать торрент  

    докачал до 92.7% и все!!!pb.wtf



    25-08-2016 04:19 Обвиняемая Скачать торрент  

    Кто нибудь смотрел и как?pb.wtf



      Дорогой пользователь! Огромная просьба, поблагодарите релизера, оцените раздачу и оставьте свои комментарий, если Вы скачали Обвиняемая через торрент бесплатно! Внесите свою лепту в развитие PiratBit!
      Комментировать посты могут только пользователи прошедшие не сложную регистрацию
      Показать сообщения:    

      Обвиняемая через торрент
      Скачать бесплатно Обвиняемая
      Обвиняемая скачать торрент
      Обвиняемая смотреть онлайн
      Cкачать фильм Обвиняемая бесплатно
      Обвиняемая скачать торрент в хорошем качестве
      Обвиняемая смотреть онлайн бесплатно в хорошем качестве


      Вы не можете начинать темы
      Вы не можете отвечать на сообщения
      Вы не можете редактировать свои сообщения
      Вы не можете удалять свои сообщения
      Вы не можете голосовать в опросах
      Вы не можете прикреплять файлы к сообщениям
      Вы можете скачивать файлы