Доктор Стрэндж

Лицензия

Добыча

Дубляж

Дом дракона

1 сезон

Тор

Дубляж

В эфире

Дубляж

Там, где раки поют

MVO

Властелин колец

1 сезон

GLOBAL

pack

Рекомендуем

30

Пиратка

ВАЖНО

ВАЖНО

Ghostwire

Пиратка

jed

RePack

nioh2

RePack

RDR2

RePack

NEED FOR SPEED™ PAYBACK

RePack

скачать торрент

Кинопоиск HD

Острые козырьки 6 сезон

6 сезон

FAR CRY 6

RePack

скачать торрент

Лицензия

скачать торрент

MVO

1

1 сезон

скачать торрент

1 сезон

скачать торрент

Лицензия

  

Бэтмен против Супермена: На заре справедливости / Batman v Superman:Dawn of Just. (Зак Снайдер) [2016, Фантастика, фэнтези, боевик, приключения, BDRemux 1080p от ExKinoRay] Расширенная версия / Дубляж

Бэтмен против Супермена: На заре справедливости через торрент pb.wtf

Размер: 37.46 GB | Добавлен: 6 лет 4 мес. назад | Торрент скачан:391 раз
Смотреть онлайн | Скачать   

16-07-2016 06:59 Бэтмен против Супермена: На заре справедливости Скачать торрент  

Название: Бэтмен против Супермена: На заре справедливости
Оригинальное название: Batman v Superman: Dawn of Justice
Год выхода: 2016
Жанр: Фантастика, фэнтези, боевик, приключения
Страна: США
Студия: Atlas Entertainment, DC Comics, DC Entertainment, Warner Bros. Pictures
Продолжительность: 03:02:31
Перевод: Дублированный | iTunes
Субтитры: Русские (forced,full), английские (srt,SDH)

Режиссер: Зак Снайдер

В ролях: Генри Кавилл, Бен Аффлек, Галь Гадот, Эми Адамс, Джесси Айзенберг, Джереми Айронс, Дайан Лэйн, Лоренс Фишбёрн, Холли Хантер, Скут МакНэйри, Каллэн Мулвей, Тао Окамото, Брэндон Спинк, Лорен Коэн, Алан Д. Первин, Марк Эдвард Тейлор, Хью Магвайр, Майкл Шеннон, Ханна Дворкин, Тиффани Л. Эддисон

Описание:

Битва между Кал-Элом и генералом Зодом наносит множество разрушений Метрополису и соседнему Готэм Сити. Башня Уэйн-тауэр - уничтожена вместе с сотнями невинных людей. Это становится началом конфликта между Последним Сыном Криптона и Темным Рыцарем Готэма, богом и человеком. Тем временем, сумасшедший гений Лекс Лютор готовит оружие Судного дня, способное уничтожить не только богоподобного Супермена, но и все человечество.



Файл

Качество: BDRemux 1080p
Формат: MKV
Видео: MPEG-4, 1920x1080, 24.0 Mbit/s, 23.976 fps
Аудио #01: 48 kHz, AC3, 5.1, 384 Kbps | Дублированный, iTunes |
Аудио #02: 48 kHz, TrueHD, 7.1, 4967 kbps | Оригинал |

Релиз от: Автор релиза:

General

Unique ID : 196624103611083923984117715732874176989 (0x93EC6CC5CE7A618DB073ED1398B0A9DD)

Complete name : F:VideoНовая папкаBatman.v.Superman.Dawn.of.Justice.2016.Extended.Ultimate.Edition...BDREMUX.1080p.ExKinoRay.mkv

Format : Matroska

Format version : Version 4 / Version 2

File size : 37.5 GiB

Duration : 3h 2mn

Overall bit rate mode : Variable

Overall bit rate : 29.4 Mbps

Movie name : Batman.v.Superman.Dawn.of.Justice.2016.Extended.Ultimate.Edition...BDREMUX.1080p.ExKinoRay

Encoded date : UTC 2016-07-09 00:40:13

Writing application : mkvmerge v8.3.0 ('Over the Horizon') 64bit

Writing library : libebml v1.3.1 + libmatroska v1.4.2

Video

ID : 1

Format : AVC

Format/Info : Advanced Video Codec

Format profile : [email protected]

Format settings, CABAC : Yes

Format settings, ReFrames : 2 frames

Codec ID : V_MPEG4/ISO/AVC

Duration : 3h 2mn

Bit rate mode : Variable

Bit rate : 24.0 Mbps

Width : 1 920 pixels

Height : 1 080 pixels

Display aspect ratio : 16:9

Frame rate mode : Constant

Frame rate : 23.976 (24000/1001) fps

Color space : YUV

Chroma subsampling : 4:2:0

Bit depth : 8 bits

Scan type : Progressive

Bits/(Pixel*Frame) : 0.482

Stream size : 30.6 GiB (82%)

Language : English

Default : Yes

Forced : No

Audio #1

ID : 2

Format : AC-3

Format/Info : Audio Coding 3

Mode extension : CM (complete main)

Format settings, Endianness : Big

Codec ID : A_AC3

Duration : 3h 2mn

Bit rate mode : Constant

Bit rate : 384 Kbps

Channel(s) : 6 channels

Channel positions : Front: L C R, Side: L R, LFE

Sampling rate : 48.0 KHz

Frame rate : 31.250 fps (1536 spf)

Compression mode : Lossy

Stream size : 501 MiB (1%)

Language : Russian

Default : Yes

Forced : No

Audio #2

ID : 3

Format : Atmos / TrueHD

Codec ID : A_TRUEHD

Duration : 3h 2mn

Bit rate mode : Variable

Bit rate : 4 967 Kbps

Maximum bit rate : 8 199 Kbps

Channel(s) : Object Based / 8 channels

Channel positions : Object Based / Front: L C R, Side: L R, Back: L R, LFE

Sampling rate : / 48.0 KHz

Frame rate : 1 200.000 fps (40 spf)

Compression mode : Lossless

Stream size : 6.33 GiB (17%)

Language : English

Default : No

Forced : No

Text #1

ID : 4

Format : UTF-8

Codec ID : S_TEXT/UTF8

Codec ID/Info : UTF-8 Plain Text

Duration : 2h 53mn

Bit rate : 19 bps

Count of elements : 431

Stream size : 24.5 KiB (0%)

Title : Forced

Language : Russian

Default : Yes

Forced : No

Text #2

ID : 5

Format : UTF-8

Codec ID : S_TEXT/UTF8

Codec ID/Info : UTF-8 Plain Text

Duration : 2h 53mn

Bit rate : 66 bps

Count of elements : 1588

Stream size : 84.8 KiB (0%)

Title : [NotaBenoid]

Language : Russian

Default : No

Forced : No

Text #3

ID : 6

Format : UTF-8

Codec ID : S_TEXT/UTF8

Codec ID/Info : UTF-8 Plain Text

Duration : 3h 2mn

Bit rate : 43 bps

Count of elements : 1914

Stream size : 58.7 KiB (0%)

Title : Full

Language : English

Default : No

Forced : No

Text #4

ID : 7

Format : UTF-8

Codec ID : S_TEXT/UTF8

Codec ID/Info : UTF-8 Plain Text

Duration : 2h 53mn

Bit rate : 46 bps

Count of elements : 1913

Stream size : 58.5 KiB (0%)

Title : SDH

Language : English

Default : No

Forced : No

Menu

00:00:00.000 : en:00:00:00.000

00:10:10.652 : en:00:10:10.652

00:27:00.661 : en:00:27:00.661

00:37:49.225 : en:00:37:49.225

00:46:54.520 : en:00:46:54.520

01:02:04.971 : en:01:02:04.971

01:14:10.613 : en:01:14:10.613

01:28:07.115 : en:01:28:07.115

01:41:46.642 : en:01:41:46.642

01:53:52.617 : en:01:53:52.617

02:02:58.079 : en:02:02:58.079

02:15:04.054 : en:02:15:04.054

02:27:55.075 : en:02:27:55.075

02:36:51.444 : en:02:36:51.444

02:48:27.514 : en:02:48:27.514

02:54:43.765 : en:02:54:43.765
На расширенных местах, многоголосое закадровое озвучивание. В некоторых расширенных местах отсутствует озвучивание. P.S Все расширенные места переведены форсированными субтитрами.
скриншот   скриншот   скриншот  



Скачать Бэтмен против Супермена: На заре справедливости через торрент https://pic1.kartinco.top/images/10/q5xvj.jpg Скачать, смотреть онлайн Бэтмен против Супермена: На заре справедливости бесплантно в хорошем качестве Описание: Битва между Кал-Элом и генералом Зодом наносит множество разрушений Метрополису и соседнему Готэм Сити. Башня Уэйн-тауэр - ... 10 10 7
Info! Золотая раздача, скачанное не засчитывается.
Торрент: Зарегистрирован [2016-07-16 06:59] · скачан: 391 раз
Статус: √ проверено
Размер: 37.46 GB
Как cкачать? Как скачать Бэтмен против Супермена: На заре справедливости через торрент | UTorrent

% Раздел Тема Автор DL S | L
Фильмы [HD 720p, 1080p] (Хороший звук DUB, MVO) [ 13.41 GB ] Бэтмен против Супермена: На заре справедливости / Batman v Superman: Dawn of Justice | Дубляж | 1080p, HEVC, Дубляж Мичман37 Скачать
1 | 0

28-11-2019 20:33  


Отключить вcю реклaмy на сайте, в т.ч. и в плеере онлайн просмотра!

    Дорогой пользователь! Огромная просьба, поблагодарите релизера, оцените раздачу и оставьте свои комментарий, если Вы скачали Бэтмен против Супермена: На заре справедливости через торрент бесплатно!!
    Комментировать посты могут только пользователи прошедшие не сложную регистрацию
    Показать сообщения:    


    Бэтмен против Супермена: На заре справедливости через торрент
    Скачать бесплатно Бэтмен против Супермена: На заре справедливости
    Бэтмен против Супермена: На заре справедливости скачать торрент
    Бэтмен против Супермена: На заре справедливости смотреть онлайн
    Cкачать фильм Бэтмен против Супермена: На заре справедливости бесплатно
    Бэтмен против Супермена: На заре справедливости скачать торрент в хорошем качестве
    Бэтмен против Супермена: На заре справедливости смотреть онлайн бесплатно в хорошем качестве
    Вы не можете начинать темы
    Вы не можете отвечать на сообщения
    Вы не можете редактировать свои сообщения
    Вы не можете удалять свои сообщения
    Вы не можете голосовать в опросах
    Вы не можете прикреплять файлы к сообщениям
    Вы можете скачивать файлы
    Бэтмен против Супермена: На заре справедливости / Batman v Superman:Dawn of Just. [2016, Фантастика, фэнтези, боевик, приключения, BDRemux 1080p от ExKinoRay] Расширенная версия / Дубляж смотреть онлайн, скачать торрент picoco.icu