Достать ножи: Стеклянная луковица

MVO

Добыча

Дубляж

Уэнсдэй

1 сезон

Тор

Дубляж

13 клиническая

1 сезон

Жестокая ночь

MVO

Одни из нас

1 сезон

Deluxe

pack

Рекомендуем

30

Пиратка

ВАЖНО

ВАЖНО

Ghostwire

Пиратка

jed

RePack

nioh2

RePack

RDR2

RePack

NEED FOR SPEED™ PAYBACK

RePack

скачать торрент

Кинопоиск HD

Острые козырьки 6 сезон

6 сезон

FAR CRY 6

RePack

скачать торрент

Лицензия

скачать торрент

MVO

1

1 сезон

скачать торрент

1 сезон

скачать торрент

Лицензия

  

Дорога / The Road (Джон Хиллкоут / John Hillcoat) [2009, драма, приключения, BDRip 1080p от NNNB] 2xMVO + 2xAVO + Original + Sub (5xRus,Eng)

Дорога через торрент pb.wtf

Раздают: 1 [ 0 KB/s ]
Размер: 10.92 GB | Добавлен: 6 лет 6 мес. назад | Торрент скачан:280 раз
Смотреть онлайн | Скачать | Поддержите нас   

16-07-2016 08:01 Дорога Скачать торрент  

Дорога / The Road
«В одно мгновение мир изменился навсегда»


Год выпуска: 2009
Страна: США
Жанр: драма, приключения
Продолжительность: 01:51:20
Перевод: Профессиональный многоголосый, Авторский одноголосый
Субтитры: русские (R5), русские (Voronin), русские (SDH.Voronin), русские (SDH-Colored.Voronin), русские (Pozdnyakov), английские
Режиссер: Джон Хиллкоут
В ролях: Вигго Мортенсен , Коди Смит-МакФи , Шарлиз Терон , Гай Пирс , Роберт Дювалл , Молли Паркер , Майкл Кеннет Уильямс , Гаррет Диллахант , Боб Дженнингс , Аньес Херрманн , Бадди Состэнд , Кирк Браун
Описание:
На Землю обрушились чудовищные катаклизмы, цивилизация уничтожена, как и практически вся жизнь на планете. Оставшееся человечество разделилось на каннибалов и их добычу. По дороге, покрытой пеплом, идут отец с сыном. Они хотят добраться до теплых мест, чтобы выжить...

R - Лицам до 17 лет обязательно присутствие взрослого
Качество: BDRip 1080p
Контейнер (Расширение): MKV
Видео: 1920x816, 11262 Кбит/сек, 23,976 кадр/сек, 0,300 Бит/[Пиксели*Кадры]
Аудио №1: русский / AC3 / 5.1 / 48 kHz / 640 kbps / 16 bit |Профессиональный многоголосый, R5|
Аудио №2: русский / AC3 / 5.1 / 48 kHz / 640 kbps / 16 bit |Авторский одноголосый, Ю.Сербин|
Аудио №3: русский / AC3 / 5.1 / 48 kHz / 384 kbps / 16 bit |Авторский одноголосый, К.Поздняков| - (присутствует ненормативная лексика)
Аудио №4: русский / AC3 / 2.0 / 48 kHz / 192 kbps / 16 bit |Профессиональный многоголосый, Рен-ТВ|
Аудио №5: английский / AC3 / 5.1 / 48 kHz / 640 kbps / 16 bit
Навигация по главам(Чаптеры): естьАвтор рипа: Сообщество: Переводы и субтитры отдельно:

Код:

Format                                   : Matroska
Format version                           : Version 2
File size                                : 10.9 GiB
Duration                                 : 1h 51mn
Overall bit rate                         : 14.0 Mbps
Movie name                               : The Road.(2009).BDRip.1080p.[denis100]
Encoded date                             : UTC 2016-07-05 05:43:45
Writing application                      : mkvmerge v5.8.0 ('No Sleep / Pillow') built on Sep  2 2012 15:37:04
Writing library                          : libebml v1.2.3 + libmatroska v1.3.0

Video
ID                                       : 1
Format                                   : AVC
Format/Info                              : Advanced Video Codec
Format profile                           : [email protected]
Format settings, CABAC                   : Yes
Format settings, ReFrames                : 5 frames
Codec ID                                 : V_MPEG4/ISO/AVC
Duration                                 : 1h 51mn
Bit rate                                 : 11.3 Mbps
Width                                    : 1 920 pixels
Height                                   : 816 pixels
Display aspect ratio                     : 2.35:1
Frame rate                               : 23.976 fps
Color space                              : YUV
Chroma subsampling                       : 4:2:0
Bit depth                                : 8 bits
Scan type                                : Progressive
Bits/(Pixel*Frame)                       : 0.300
Stream size                              : 8.76 GiB (80%)
Title                                    : The Road.(2009).BDRip.1080p.[denis100]
Writing library                          : x264 core 148 r2692 64f4e24
Encoding settings                        : cabac=1 / ref=5 / deblock=1:-3:-3 / analyse=0x3:0x133 / me=umh / subme=11 / psy=1 / psy_rd=1.00:0.15 / mixed_ref=1 / me_range=32 / chroma_me=1 / trellis=2 / 8x8dct=1 / cqm=0 / deadzone=21,11 / fast_pskip=0 / chroma_qp_offset=-3 / threads=6 / lookahead_threads=1 / sliced_threads=0 / nr=0 / decimate=1 / interlaced=0 / bluray_compat=0 / constrained_intra=0 / bframes=10 / b_pyramid=2 / b_adapt=2 / b_bias=0 / direct=3 / weightb=1 / open_gop=0 / weightp=2 / keyint=240 / keyint_min=23 / scenecut=40 / intra_refresh=0 / rc=crf / mbtree=0 / crf=16.8 / qcomp=0.60 / qpmin=0 / qpmax=69 / qpstep=4 / ip_ratio=1.40 / pb_ratio=1.30 / aq=2:0.80
Language                                 : English
Default                                  : No
Forced                                   : No

Audio #1
ID                                       : 2
Format                                   : AC-3
Format/Info                              : Audio Coding 3
Mode extension                           : CM (complete main)
Codec ID                                 : A_AC3
Duration                                 : 1h 51mn
Bit rate mode                            : Constant
Bit rate                                 : 640 Kbps
Channel(s)                               : 6 channels
Channel positions                        : Front: L C R, Side: L R, LFE
Sampling rate                            : 48.0 KHz
Bit depth                                : 16 bits
Compression mode                         : Lossy
Stream size                              : 510 MiB (5%)
Title                                    : MVO, R5
Language                                 : Russian
Default                                  : Yes
Forced                                   : No

Audio #2
ID                                       : 3
Format                                   : AC-3
Format/Info                              : Audio Coding 3
Mode extension                           : CM (complete main)
Codec ID                                 : A_AC3
Duration                                 : 1h 51mn
Bit rate mode                            : Constant
Bit rate                                 : 640 Kbps
Channel(s)                               : 6 channels
Channel positions                        : Front: L C R, Side: L R, LFE
Sampling rate                            : 48.0 KHz
Bit depth                                : 16 bits
Compression mode                         : Lossy
Stream size                              : 510 MiB (5%)
Title                                    : AVO, Ю.Сербин
Language                                 : Russian
Default                                  : No
Forced                                   : No

Audio #3
ID                                       : 4
Format                                   : AC-3
Format/Info                              : Audio Coding 3
Mode extension                           : CM (complete main)
Codec ID                                 : A_AC3
Duration                                 : 1h 51mn
Bit rate mode                            : Constant
Bit rate                                 : 384 Kbps
Channel(s)                               : 6 channels
Channel positions                        : Front: L C R, Side: L R, LFE
Sampling rate                            : 48.0 KHz
Bit depth                                : 16 bits
Compression mode                         : Lossy
Stream size                              : 306 MiB (3%)
Title                                    : AVO, К.Поздняков
Language                                 : Russian
Default                                  : No
Forced                                   : No

Audio #4
ID                                       : 5
Format                                   : AC-3
Format/Info                              : Audio Coding 3
Mode extension                           : CM (complete main)
Codec ID                                 : A_AC3
Duration                                 : 1h 51mn
Bit rate mode                            : Constant
Bit rate                                 : 192 Kbps
Channel(s)                               : 2 channels
Channel positions                        : Front: L R
Sampling rate                            : 48.0 KHz
Bit depth                                : 16 bits
Compression mode                         : Lossy
Stream size                              : 153 MiB (1%)
Title                                    : MVO, Рен-ТВ
Language                                 : Russian
Default                                  : No
Forced                                   : No

Audio #5
ID                                       : 6
Format                                   : AC-3
Format/Info                              : Audio Coding 3
Mode extension                           : CM (complete main)
Codec ID                                 : A_AC3
Duration                                 : 1h 51mn
Bit rate mode                            : Constant
Bit rate                                 : 640 Kbps
Channel(s)                               : 6 channels
Channel positions                        : Front: L C R, Side: L R, LFE
Sampling rate                            : 48.0 KHz
Bit depth                                : 16 bits
Compression mode                         : Lossy
Stream size                              : 510 MiB (5%)
Language                                 : English
Default                                  : No
Forced                                   : No

Text #1
ID                                       : 7
Format                                   : UTF-8
Codec ID                                 : S_TEXT/UTF8
Codec ID/Info                            : UTF-8 Plain Text
Title                                    : R5
Language                                 : Russian
Default                                  : No
Forced                                   : No

Text #2
ID                                       : 8
Format                                   : UTF-8
Codec ID                                 : S_TEXT/UTF8
Codec ID/Info                            : UTF-8 Plain Text
Title                                    : Voronin
Language                                 : Russian
Default                                  : No
Forced                                   : No

Text #3
ID                                       : 9
Format                                   : UTF-8
Codec ID                                 : S_TEXT/UTF8
Codec ID/Info                            : UTF-8 Plain Text
Title                                    : SDH.Voronin
Language                                 : Russian
Default                                  : No
Forced                                   : No

Text #4
ID                                       : 10
Format                                   : UTF-8
Codec ID                                 : S_TEXT/UTF8
Codec ID/Info                            : UTF-8 Plain Text
Title                                    : SDH-Colored.Voronin
Language                                 : Russian
Default                                  : No
Forced                                   : No

Text #5
ID                                       : 11
Format                                   : UTF-8
Codec ID                                 : S_TEXT/UTF8
Codec ID/Info                            : UTF-8 Plain Text
Title                                    : Pozdnyakov
Language                                 : Russian
Default                                  : No
Forced                                   : No

Text #6
ID                                       : 12
Format                                   : UTF-8
Codec ID                                 : S_TEXT/UTF8
Codec ID/Info                            : UTF-8 Plain Text
Language                                 : English
Default                                  : No
Forced                                   : No

Menu
00:00:00.000                             : en:Chapter 01
00:07:44.630                             : en:Chapter 02
00:11:50.126                             : en:Chapter 03
00:17:30.466                             : en:Chapter 04
00:23:58.854                             : en:Chapter 05
00:33:25.420                             : en:Chapter 06
00:37:30.748                             : en:Chapter 07
00:44:31.627                             : en:Chapter 08
00:51:59.324                             : en:Chapter 09
00:59:17.345                             : en:Chapter 10
01:06:22.186                             : en:Chapter 11
01:11:18.065                             : en:Chapter 12
01:20:02.214                             : en:Chapter 13
01:25:44.556                             : en:Chapter 14
01:30:52.989                             : en:Chapter 15
01:36:24.278                             : en:Chapter 16

x264 [info]: frame I:893 Avg QP:13.05 size:179323
x264 [info]: frame P:29832 Avg QP:14.14 size: 92031
x264 [info]: frame B:129450 Avg QP:16.54 size: 52058



Скачать Дорога через торрент http://i4-imageban-ru.translate.goog/out/2016/07/04/012c2e88031bb69337c2ab5c85aeec04.png Скачать, смотреть онлайн Дорога бесплантно в хорошем качестве Описание:На Землю обрушились чудовищные катаклизмы, цивилизация уничтожена, как и практически вся жизнь на планете. Оставшееся человечество ... 10 10 2
Торрент: Зарегистрирован [2016-07-16 08:01] · скачан: 280 раз
Статус: √ проверено
Размер: 10.92 GB
Как cкачать? Как скачать Дорога через торрент | UTorrent

% Раздел Тема Автор DL S | L
Фильмы [HD 720p, 1080p] (Хороший звук DUB, MVO) [ 5.33 GB ] Дорога / The Road | MVO + 2xAVO + Original + Sub | 720p от _denis_100 / NNNB _denis_100 Скачать
1 | 0
Фильмы 2009 [ 1.37 GB ] Дорога / The Road | | DVDRip vitalka8 Скачать
1 | 0

28-11-2019 20:33  


Отключить вcю реклaмy на сайте, в т.ч. и в плеере онлайн просмотра!

    Дорогой пользователь! Огромная просьба, поблагодарите релизера, оцените раздачу и оставьте свои комментарий, если Вы скачали Дорога через торрент бесплатно!!
    Комментировать посты могут только пользователи прошедшие не сложную регистрацию
    Показать сообщения:    


    Дорога через торрент
    Скачать бесплатно Дорога
    Дорога скачать торрент
    Дорога смотреть онлайн
    Cкачать фильм Дорога бесплатно
    Дорога скачать торрент в хорошем качестве
    Дорога смотреть онлайн бесплатно в хорошем качестве
    Вы не можете начинать темы
    Вы не можете отвечать на сообщения
    Вы не можете редактировать свои сообщения
    Вы не можете удалять свои сообщения
    Вы не можете голосовать в опросах
    Вы не можете прикреплять файлы к сообщениям
    Вы можете скачивать файлы
    Дорога / The Road [2009, драма, приключения, BDRip 1080p от NNNB] 2xMVO + 2xAVO + Original + Sub смотреть онлайн, скачать торрент picoco.icu