Всегда рабочее зеркало без VPN и Proxy просто перед .vidak.icu напиши любое слово или цифру, Пример http://6alm.vidak.icu

MVO

2 сезон

2 сезон

1

1 сезон

iTunes

2 сезон

13

1 сезон

Deluxe

pack

Рекомендуем

Пиратка

30

ВАЖНО

RePack

MK11

RePack

jed

RePack

fifa19

RePack

RDR2

RePack

NEED FOR SPEED™ PAYBACK

Кинопоиск HD

6 сезон

 Острые козырьки 6 сезон

Все сериалы

все сериалы на PB.wtf

RePack

FAR CRY 5

Anonymous, нам критически не хватает 5601 руб. на оплату серверов и переферии за Апрель, помоги нам пожалуйста, вся надежда только на тебя. В благодарность мы отключим тебе всю рекламу на сайте!

×
  
Magnet ссылка

Отступники / The Departed (Мартин Скорсезе / Martin Scorsese) [2006, триллер, драма, криминал, BDRip 1080p от NNNB] DUB, 2xDVO, 3xAVO, VO + Oroginal +Sub (3xRus,Eng) pb.wtf

Отступники через торрент pb.wtf

Размер: 15.34 GB | Добавлен: 5 лет 10 мес. назад | Торрент скачан:276 раз
Смотреть онлайн Отступники | Скачать    Ребята, помогите собрать деньги на оплату серверов!!!

16-07-2016 08:06 Отступники Скачать торрент  

Отступники / The Departed
«Свой среди чужих»


Год выпуска: 2006
Страна: США, Гонконг
Жанр: триллер, драма, криминал
Продолжительность: 02:31:18
Перевод: Дублированный, Профессиональный двухголосый, Авторский одноголосый, Любительский одноголосый
Субтитры: русские (Forced), русские (R5), русские (REN_313), английские
Режиссер: Мартин Скорсезе
В ролях: Леонардо ДиКаприо , Мэтт Дэймон , Джек Николсон , Марк Уолберг , Мартин Шин , Рэй Уинстон , Вера Фармига , Энтони Андерсон , Алек Болдуин , Кевин Корригэн , Джеймс Бэдж Дэйл , Дэвид О’Хара
Описание:
Два лучших выпускника полицейской академии оказались по разные стороны баррикады: один из них - агент мафии в рядах правоохранительных органов, другой - «крот», внедрённый в мафию. Каждый считает своим долгом обнаружить и уничтожить противника, но постоянная жизнь в искажённых реалиях меняет внутренний мир героев.

R - Лицам до 17 лет обязательно присутствие взрослого
Качество: BDRip 1080p
Контейнер (Расширение): MKV
Видео: 1920x796, 10000 Кбит/сек, 23,976 кадр/сек, 0,273 Бит/[Пиксели*Кадры]
Аудио №1: русский / AC3 / 5.1 / 48 kHz / 448 kbps / 16 bit |Дублированный|
Аудио №2: русский / AC3 / 5.1 / 48 kHz / 640 kbps / 16 bit |Профессиональный двухголосый, П. Гланц и И. Королёва|
Аудио №3: русский / AC3 / 5.1 / 48 kHz / 640 kbps / 16 bit |Авторский одноголосый, Д. Есарев| - ненормативная лексика
Аудио №4: русский / AC3 / 5.1 / 48 kHz / 640 kbps / 16 bit |Авторский одноголосый, А. Гаврилов|
Аудио №5: русский / AC3 / 5.1 / 48 kHz / 640 kbps / 16 bit |Авторский одноголосый, Ю. Немахов|
Аудио №6: русский / AC3 / 2.0 / 48 kHz / 224 kbps / 16 bit |Профессиональный двухголосый, Ren-TV|
Аудио №7: русский / AC3 / 5.1 / 48 kHz / 640 kbps / 16 bit |Любительский одноголосый, Zamez| - ненормативная лексика
Аудио №8: английский / AC3 / 5.1 / 48 kHz / 640 kbps / 16 bit
Навигация по главам (Чаптеры): есть (подписаны)Автор рипа: Сообщество:
Звуковые дорожки и субтитры отдельно:

Код:

Format                                   : Matroska
Format version                           : Version 2
File size                                : 15.3 GiB
Duration                                 : 2h 31mn
Overall bit rate                         : 14.5 Mbps
Movie name                               : The Departed.(2006).BDRip.1080p.[denis100]
Encoded date                             : UTC 2016-06-07 07:14:32
Writing application                      : mkvmerge v5.8.0 ('No Sleep / Pillow') built on Sep  2 2012 15:37:04
Writing library                          : libebml v1.2.3 + libmatroska v1.3.0

Video
ID                                       : 1
Format                                   : AVC
Format/Info                              : Advanced Video Codec
Format profile                           : High@L4.1
Format settings, CABAC                   : Yes
Format settings, ReFrames                : 5 frames
Codec ID                                 : V_MPEG4/ISO/AVC
Duration                                 : 2h 31mn
Bit rate                                 : 10 000 Kbps
Width                                    : 1 920 pixels
Height                                   : 796 pixels
Display aspect ratio                     : 2.40:1
Frame rate                               : 23.976 fps
Color space                              : YUV
Chroma subsampling                       : 4:2:0
Bit depth                                : 8 bits
Scan type                                : Progressive
Bits/(Pixel*Frame)                       : 0.273
Stream size                              : 10.3 GiB (67%)
Title                                    : The Departed.(2006).BDRip.1080p.[denis100]
Writing library                          : x264 core 148 r2692 64f4e24
Encoding settings                        : cabac=1 / ref=5 / deblock=1:-3:-3 / analyse=0x3:0x133 / me=umh / subme=11 / psy=1 / psy_rd=1.00:0.10 / mixed_ref=1 / me_range=32 / chroma_me=1 / trellis=2 / 8x8dct=1 / cqm=0 / deadzone=21,11 / fast_pskip=0 / chroma_qp_offset=-3 / threads=6 / lookahead_threads=1 / sliced_threads=0 / nr=0 / decimate=1 / interlaced=0 / bluray_compat=0 / constrained_intra=0 / bframes=10 / b_pyramid=2 / b_adapt=2 / b_bias=0 / direct=3 / weightb=1 / open_gop=0 / weightp=2 / keyint=240 / keyint_min=23 / scenecut=40 / intra_refresh=0 / rc=2pass / mbtree=0 / bitrate=10000 / ratetol=1.0 / qcomp=0.60 / qpmin=0 / qpmax=69 / qpstep=4 / cplxblur=20.0 / qblur=0.5 / ip_ratio=1.40 / pb_ratio=1.30 / aq=2:0.80
Language                                 : English
Default                                  : Yes
Forced                                   : No

Audio #1
ID                                       : 2
Format                                   : AC-3
Format/Info                              : Audio Coding 3
Mode extension                           : CM (complete main)
Codec ID                                 : A_AC3
Duration                                 : 2h 31mn
Bit rate mode                            : Constant
Bit rate                                 : 448 Kbps
Channel(s)                               : 6 channels
Channel positions                        : Front: L C R, Side: L R, LFE
Sampling rate                            : 48.0 KHz
Bit depth                                : 16 bits
Compression mode                         : Lossy
Stream size                              : 485 MiB (3%)
Title                                    : Дубляж
Language                                 : Russian
Default                                  : Yes
Forced                                   : No

Audio #2
ID                                       : 3
Format                                   : AC-3
Format/Info                              : Audio Coding 3
Mode extension                           : CM (complete main)
Codec ID                                 : A_AC3
Duration                                 : 2h 31mn
Bit rate mode                            : Constant
Bit rate                                 : 640 Kbps
Channel(s)                               : 6 channels
Channel positions                        : Front: L C R, Side: L R, LFE
Sampling rate                            : 48.0 KHz
Bit depth                                : 16 bits
Compression mode                         : Lossy
Delay relative to video                  : 22ms
Stream size                              : 693 MiB (4%)
Title                                    : DVO, П. Гланц и И. Королёва
Language                                 : Russian
Default                                  : No
Forced                                   : No

Audio #3
ID                                       : 4
Format                                   : AC-3
Format/Info                              : Audio Coding 3
Mode extension                           : CM (complete main)
Codec ID                                 : A_AC3
Duration                                 : 2h 31mn
Bit rate mode                            : Constant
Bit rate                                 : 640 Kbps
Channel(s)                               : 6 channels
Channel positions                        : Front: L C R, Side: L R, LFE
Sampling rate                            : 48.0 KHz
Bit depth                                : 16 bits
Compression mode                         : Lossy
Stream size                              : 693 MiB (4%)
Title                                    : AVO, Д. Есарев
Language                                 : Russian
Default                                  : No
Forced                                   : No

Audio #4
ID                                       : 5
Format                                   : AC-3
Format/Info                              : Audio Coding 3
Mode extension                           : CM (complete main)
Codec ID                                 : A_AC3
Duration                                 : 2h 31mn
Bit rate mode                            : Constant
Bit rate                                 : 640 Kbps
Channel(s)                               : 6 channels
Channel positions                        : Front: L C R, Side: L R, LFE
Sampling rate                            : 48.0 KHz
Bit depth                                : 16 bits
Compression mode                         : Lossy
Delay relative to video                  : 22ms
Stream size                              : 693 MiB (4%)
Title                                    : AVO, А. Гаврилов
Language                                 : Russian
Default                                  : No
Forced                                   : No

Audio #5
ID                                       : 6
Format                                   : AC-3
Format/Info                              : Audio Coding 3
Mode extension                           : CM (complete main)
Codec ID                                 : A_AC3
Duration                                 : 2h 31mn
Bit rate mode                            : Constant
Bit rate                                 : 640 Kbps
Channel(s)                               : 6 channels
Channel positions                        : Front: L C R, Side: L R, LFE
Sampling rate                            : 48.0 KHz
Bit depth                                : 16 bits
Compression mode                         : Lossy
Delay relative to video                  : 22ms
Stream size                              : 693 MiB (4%)
Title                                    : AVO, Ю. Немахов
Language                                 : Russian
Default                                  : No
Forced                                   : No

Audio #6
ID                                       : 7
Format                                   : AC-3
Format/Info                              : Audio Coding 3
Mode extension                           : CM (complete main)
Codec ID                                 : A_AC3
Duration                                 : 2h 31mn
Bit rate mode                            : Constant
Bit rate                                 : 224 Kbps
Channel(s)                               : 2 channels
Channel positions                        : Front: L R
Sampling rate                            : 48.0 KHz
Bit depth                                : 16 bits
Compression mode                         : Lossy
Delay relative to video                  : 22ms
Stream size                              : 242 MiB (2%)
Title                                    : DVO, Ren-TV
Language                                 : Russian
Default                                  : No
Forced                                   : No

Audio #7
ID                                       : 8
Format                                   : AC-3
Format/Info                              : Audio Coding 3
Mode extension                           : CM (complete main)
Codec ID                                 : A_AC3
Duration                                 : 2h 31mn
Bit rate mode                            : Constant
Bit rate                                 : 640 Kbps
Channel(s)                               : 6 channels
Channel positions                        : Front: L C R, Side: L R, LFE
Sampling rate                            : 48.0 KHz
Bit depth                                : 16 bits
Compression mode                         : Lossy
Delay relative to video                  : 22ms
Stream size                              : 693 MiB (4%)
Title                                    : VO, Zamez
Language                                 : Russian
Default                                  : No
Forced                                   : No

Audio #8
ID                                       : 9
Format                                   : AC-3
Format/Info                              : Audio Coding 3
Mode extension                           : CM (complete main)
Codec ID                                 : A_AC3
Duration                                 : 2h 31mn
Bit rate mode                            : Constant
Bit rate                                 : 640 Kbps
Channel(s)                               : 6 channels
Channel positions                        : Front: L C R, Side: L R, LFE
Sampling rate                            : 48.0 KHz
Bit depth                                : 16 bits
Compression mode                         : Lossy
Stream size                              : 693 MiB (4%)
Language                                 : English
Default                                  : No
Forced                                   : No

Text #1
ID                                       : 10
Format                                   : UTF-8
Codec ID                                 : S_TEXT/UTF8
Codec ID/Info                            : UTF-8 Plain Text
Title                                    : Forced
Language                                 : Russian
Default                                  : Yes
Forced                                   : No

Text #2
ID                                       : 11
Format                                   : UTF-8
Codec ID                                 : S_TEXT/UTF8
Codec ID/Info                            : UTF-8 Plain Text
Title                                    : R5
Language                                 : Russian
Default                                  : No
Forced                                   : No

Text #3
ID                                       : 12
Format                                   : UTF-8
Codec ID                                 : S_TEXT/UTF8
Codec ID/Info                            : UTF-8 Plain Text
Title                                    : REN_313
Language                                 : Russian
Default                                  : No
Forced                                   : No

Text #4
ID                                       : 13
Format                                   : UTF-8
Codec ID                                 : S_TEXT/UTF8
Codec ID/Info                            : UTF-8 Plain Text
Language                                 : English
Default                                  : No
Forced                                   : No

Menu
00:00:00.000                             : en:Start
00:05:03.636                             : en:School's Out
00:08:52.531                             : en:You're No Cop
00:14:56.061                             : en:Serve the Commonwealth
00:19:11.817                             : en:He's Jackie's Nephew
00:24:02.274                             : en:Dignam Briefs the Girls
00:26:02.060                             : en:Tipped Off, Ticked Off
00:30:07.972                             : en:Impervious to Analysis
00:32:22.774                             : en:Necessary Torture
00:37:13.397                             : en:Two Guys From Providence
00:42:46.730                             : en:May I Remind You
00:47:28.178                             : en:Call Your Mother
00:51:23.747                             : en:How Billy Feels
00:54:50.954                             : en:Hang Tight for Me
00:59:44.080                             : en:Call the Game
01:03:09.786                             : en:No Tickee, No Laundry
01:07:46.228                             : en:Relationship Ups and Downs
01:13:04.213                             : en:If You Coulda
01:14:58.160                             : en:Protected and Benumbed
01:19:28.597                             : en:Real Vulnerability
01:22:45.293                             : en:Take Care of Business
01:27:23.738                             : en:Each Other's Trail
01:30:19.247                             : en:Heavy Lies the Crown
01:36:33.287                             : en:The One That Gets Out
01:39:31.632                             : en:Tail on Queenan
01:43:48.388                             : en:Taking the Fall
01:47:45.709                             : en:Wrong Number
01:51:53.039                             : en:Dead Guy's Phone
01:56:54.340                             : en:Nation of Rats
02:00:53.412                             : en:Sheffield Shootout
02:03:06.545                             : en:Getting Frank
02:06:03.556                             : en:Deleted
02:10:52.845                             : en:Play Me Now
02:15:19.111                             : en:Rats on a Rooftop
02:18:55.994                             : en:The Departed
02:23:19.090                             : en:Okay
02:24:45.677                             : en:End Credits

x264 [info]: frame I:1915 Avg QP:14.75 size:216776
x264 [info]: frame P:47769 Avg QP:16.94 size: 89384
x264 [info]: frame B:167984 Avg QP:18.59 size: 39644
pb.wtf



Скачать Отступники через торрент http://i77.fastpic.ru/big/2016/0607/c5/cbd1500e419392a2b15227d2671466c5.png Скачать, смотреть онлайн Отступники бесплантно в хорошем качестве Описание:Два лучших выпускника полицейской академии оказались по разные стороны баррикады: один из них - агент мафии в рядах ... 9.9 10 7
Info! Золотая раздача, скачанное не засчитывается.
Торрент: Зарегистрирован [2016-07-16 08:06] · скачан: 276 раз
Статус: √ проверено
Размер: 15.34 GB
Как cкачать? Как скачать Отступники через торрент | UTorrent

% Раздел Тема Автор DL S | L
Фильмы (HD 720p, 1080p) (48-60 fps) [ 5.53 GB ] Отступники / The Departed [2006 HDTVRip - HEVC 1080p 10 bit 60 FPS DVO Open Matte] dd2d3 Скачать
1 | 1
Фильмы (HD 720p, 1080p) (48-60 fps) [ 6.49 GB ] Отступники / The Departed [2006 Hybrid 720p / 60 FPS ] от R.G. HD-Films slaventi-69 Скачать
1 | 1
Фильмы [HD 720p, 1080p] (Хороший звук DUB, MVO) [ 8.74 GB ] Отступники / The Departed [2006 BDRip-HEVC 1080p ] [FR Transfer] AVO [Немахов] +DUB [] bober100 Скачать
1 | 0
Фильмы 2006-2008 [ 2.05 GB ] Отступники / The Departed [2006 HDTVRip] [Open Matte] killermax2013 Скачать
1 | 0
Фильмы (BDRip, HDrip-AVC) (48-60 fps) [ 3.95 GB ] Отступники / The Departed [2006 BDRip-AVC 60fps Dub] от R.G. HD-Films Tiberiumsun69 Скачать
5 | 0
Фильмы с авторской озвучкой [ 2.18 GB ] Отступники / The Departed [2006 BDRip] [AVO] killermax2013 Скачать
1 | 0
Фильмы 2006-2008 [ 4.11 GB ] Отступники / The Departed [2006 Гонконг BDRip-AVC] DUB _KaisiK_ Скачать
1 | 0

28-11-2019 20:33  

Отключить всю рекламу на сайте

16-07-2016 13:55 Отступники Скачать торрент  

Отличный фильм, только вчера пересматривал. По моему скромному мнению один из лучших в своем жанре, рекомендую к просмотру!pb.wtf



    Дорогой пользователь! Огромная просьба, поблагодарите релизера, оцените раздачу и оставьте свои комментарий, если Вы скачали Отступники через торрент бесплатно!
    Комментировать посты могут только пользователи прошедшие не сложную регистрацию
    Показать сообщения:    

    Отступники через торрент
    Скачать бесплатно Отступники
    Отступники скачать торрент
    Отступники смотреть онлайн
    Cкачать фильм Отступники бесплатно
    Отступники скачать торрент в хорошем качестве
    Отступники смотреть онлайн бесплатно в хорошем качестве


    Вы не можете начинать темы
    Вы не можете отвечать на сообщения
    Вы не можете редактировать свои сообщения
    Вы не можете удалять свои сообщения
    Вы не можете голосовать в опросах
    Вы не можете прикреплять файлы к сообщениям
    Вы можете скачивать файлы