2 сезон

iTunes

1 сезон

1

iTunes

iTunes

iTunes

1 сезон

RePack

30

ИГРА 18+

pack

ВАЖНО

!!Акция!!

Alien_RageХит недели

RePack

MK11
pack

Забери бонус

RePack

jed

!!Акция!!

Alien_Rage

RePack

fifa19

RePack

Assassins Creed: Odyssey

RePack

NEED FOR SPEED™ PAYBACK

4 сезон

9 сезон

Бесстыжие 9 сезон

Все сериалы

все сериалы на PB.wtf

RePack

FAR CRY 5
  

Чемпион / Secretariat (Рэндалл Уоллес / Randall Wallace) [2010, драма, семейный, история, BDRip 720p от NNNB] MVO + AVO + Original + Sub (2xRus,2xEng) pb.wtf

Чемпион через торрент pb.wtf

Размер: 6.87 GB | Добавлен: 4 года 3 мес. назад | Торрент скачан:125 раз
Скачать  

16-07-2016 08:08 Чемпион Скачать торрент  

Чемпион / Secretariat
«The Impossible True Story»


Год выпуска: 2010
Страна: США
Жанр: драма, семейный, история, спорт
Продолжительность: 02:02:58
Перевод: Профессиональный многоголосый, Авторский одноголосый
Субтитры: русские (Forced), русские (R2), английские, английские (SDH)
Режиссер: Рэндалл Уоллес
В ролях: Дайан Лэйн , Джон Малкович , Дилан Уолш , Марго Мартиндейл , Нелсан Эллис , Фред Долтон Томпсон , Джеймс Кромуэлл , Скотт Гленн , Майкл Хардинг , Отто Торварт , Ричард Фуллертон , Тим Уэр
Описание:
Невероятная история о лошади по кличке Секретариат, которая в 1973 году смогла сделать то, что никому не удавалось на протяжении 25 лет - выиграть подряд три престижнейших скачки из серии «Тройная Корона».

PG - Рекомендуется присутствие родителей
Качество: BDRip 720p
Контейнер (Расширение): MKV
Видео: 1280x544, 5922 Кбит/сек, 23,976 кадр/сек, 0,355 Бит/[Пиксели*Кадры]
Аудио №1: русский / AC3 / 5.1 / 48 kHz / 640 kbps / 16 bit |Профессиональный многоголосый|
Аудио №2: русский / AC3 / 5.1 / 48 kHz / 640 kbps / 16 bit |Авторский одноголосый, Ю.Сербин|
Аудио №3: английский / AC3 / 5.1 / 48 kHz / 640 kbps / 16 bit
Навигация по главам(Чаптеры): естьАвтор рипа: Сообщество:

Код:

Format                                   : Matroska
Format version                           : Version 2
File size                                : 6.87 GiB
Duration                                 : 2h 2mn
Overall bit rate                         : 8 002 Kbps
Movie name                               : Secretariat.(2010).BDRip.720p.[denis100]
Encoded date                             : UTC 2016-06-16 13:57:57
Writing application                      : mkvmerge v5.8.0 ('No Sleep / Pillow') built on Sep  2 2012 15:37:04
Writing library                          : libebml v1.2.3 + libmatroska v1.3.0

Video
ID                                       : 1
Format                                   : AVC
Format/Info                              : Advanced Video Codec
Format profile                           : High@L4.1
Format settings, CABAC                   : Yes
Format settings, ReFrames                : 11 frames
Codec ID                                 : V_MPEG4/ISO/AVC
Duration                                 : 2h 2mn
Bit rate                                 : 5 922 Kbps
Width                                    : 1 280 pixels
Height                                   : 544 pixels
Display aspect ratio                     : 2.35:1
Frame rate                               : 23.976 fps
Color space                              : YUV
Chroma subsampling                       : 4:2:0
Bit depth                                : 8 bits
Scan type                                : Progressive
Bits/(Pixel*Frame)                       : 0.355
Stream size                              : 5.09 GiB (74%)
Title                                    : Secretariat.(2010).BDRip.720p.[denis100]
Writing library                          : x264 core 148 r2692 64f4e24
Encoding settings                        : cabac=1 / ref=11 / deblock=1:-3:-3 / analyse=0x3:0x113 / me=umh / subme=11 / psy=1 / psy_rd=1.00:0.10 / mixed_ref=1 / me_range=32 / chroma_me=1 / trellis=2 / 8x8dct=1 / cqm=0 / deadzone=21,11 / fast_pskip=0 / chroma_qp_offset=-3 / threads=6 / lookahead_threads=1 / sliced_threads=0 / nr=0 / decimate=1 / interlaced=0 / bluray_compat=0 / constrained_intra=0 / bframes=8 / b_pyramid=2 / b_adapt=2 / b_bias=0 / direct=3 / weightb=1 / open_gop=0 / weightp=2 / keyint=240 / keyint_min=23 / scenecut=40 / intra_refresh=0 / rc=crf / mbtree=0 / crf=16.9 / qcomp=0.60 / qpmin=0 / qpmax=69 / qpstep=4 / ip_ratio=1.40 / pb_ratio=1.30 / aq=2:0.80
Language                                 : English
Default                                  : Yes
Forced                                   : No

Audio #1
ID                                       : 2
Format                                   : AC-3
Format/Info                              : Audio Coding 3
Mode extension                           : CM (complete main)
Codec ID                                 : A_AC3
Duration                                 : 2h 2mn
Bit rate mode                            : Constant
Bit rate                                 : 640 Kbps
Channel(s)                               : 6 channels
Channel positions                        : Front: L C R, Side: L R, LFE
Sampling rate                            : 48.0 KHz
Bit depth                                : 16 bits
Compression mode                         : Lossy
Stream size                              : 563 MiB (8%)
Title                                    : Дубляж
Language                                 : Russian
Default                                  : Yes
Forced                                   : No

Audio #2
ID                                       : 3
Format                                   : AC-3
Format/Info                              : Audio Coding 3
Mode extension                           : CM (complete main)
Codec ID                                 : A_AC3
Duration                                 : 2h 2mn
Bit rate mode                            : Constant
Bit rate                                 : 640 Kbps
Channel(s)                               : 6 channels
Channel positions                        : Front: L C R, Side: L R, LFE
Sampling rate                            : 48.0 KHz
Bit depth                                : 16 bits
Compression mode                         : Lossy
Stream size                              : 563 MiB (8%)
Title                                    : AVO, Сербин
Language                                 : Russian
Default                                  : No
Forced                                   : No

Audio #3
ID                                       : 4
Format                                   : AC-3
Format/Info                              : Audio Coding 3
Mode extension                           : CM (complete main)
Codec ID                                 : A_AC3
Duration                                 : 2h 2mn
Bit rate mode                            : Constant
Bit rate                                 : 640 Kbps
Channel(s)                               : 6 channels
Channel positions                        : Front: L C R, Side: L R, LFE
Sampling rate                            : 48.0 KHz
Bit depth                                : 16 bits
Compression mode                         : Lossy
Stream size                              : 563 MiB (8%)
Language                                 : English
Default                                  : No
Forced                                   : No

Text #1
ID                                       : 5
Format                                   : UTF-8
Codec ID                                 : S_TEXT/UTF8
Codec ID/Info                            : UTF-8 Plain Text
Title                                    : Forced
Language                                 : Russian
Default                                  : Yes
Forced                                   : No

Text #2
ID                                       : 6
Format                                   : UTF-8
Codec ID                                 : S_TEXT/UTF8
Codec ID/Info                            : UTF-8 Plain Text
Title                                    : R2
Language                                 : Russian
Default                                  : No
Forced                                   : No

Text #3
ID                                       : 7
Format                                   : UTF-8
Codec ID                                 : S_TEXT/UTF8
Codec ID/Info                            : UTF-8 Plain Text
Language                                 : English
Default                                  : No
Forced                                   : No

Text #4
ID                                       : 8
Format                                   : UTF-8
Codec ID                                 : S_TEXT/UTF8
Codec ID/Info                            : UTF-8 Plain Text
Title                                    : SDH
Language                                 : English
Default                                  : No
Forced                                   : No

Menu
00:00:00.000                             : en:00:00:00.000
00:01:50.402                             : en:00:01:50.402
00:09:50.005                             : en:00:09:50.005
00:18:15.510                             : en:00:18:15.510
00:24:28.634                             : en:00:24:28.634
00:32:05.840                             : en:00:32:05.840
00:39:28.532                             : en:00:39:28.532
00:48:01.545                             : en:00:48:01.545
00:58:42.893                             : en:00:58:42.893
01:07:10.818                             : en:01:07:10.818
01:16:58.404                             : en:01:16:58.404
01:23:19.661                             : en:01:23:19.661
01:32:05.811                             : en:01:32:05.811
01:38:16.265                             : en:01:38:16.265
01:47:13.719                             : en:01:47:13.719
01:54:10.844                             : en:01:54:10.844

x264 [info]: frame I:1416 Avg QP:16.25 size:152943
x264 [info]: frame P:37360 Avg QP:17.75 size: 56545
x264 [info]: frame B:138143 Avg QP:19.91 size: 23729
pb.wtf



Скачать Чемпион через торрент http://i2.imageban.ru/out/2016/06/16/2700532e736de730af6f67f6eae0d828.png Скачать фильм Чемпион через торрент бесплантно в хорошем качестве Описание:Невероятная история о лошади по кличке Секретариат, которая в 1973 году смогла сделать то, что никому не удавалось на протяжении ... 5 10 1
Info! Золотая раздача, скачанное не засчитывается.
Торрент: Зарегистрирован [2016-07-16 08:08] · скачан: 125 раз
Статус: √ проверено
Размер: 6.87 GB
Как cкачать? Как скачать Чемпион через торрент | qTorrent

% Раздел Тема Автор DL S | L
Фильмы 2010 [ 1.45 GB ] Чемпион / Секретариат / Secretariat [2010 история HDTVRip] [MVO] killermax2013 Скачать
1 | 0
Фильмы 2010 [ 1.37 GB ] Чемпион / Secretariat [2010 история ... HDRip ] Skatcher2 Скачать
1 | 0
Фильмы (DVD фильмы) [ 7.14 GB ] Чемпион / Secretariat [2010 история DVD9] voovaz Скачать
1 | 0
Фильмы 2010 [ 2.18 GB ] Чемпион / Secretariat [2010 история BDRip] Shmel Скачать
1 | 0

28-11-2019 20:33  

Отключить всю рекламу на сайте

    Дорогой пользователь! Огромная просьба, поблагодарите релизера, оцените раздачу и оставьте свои комментарий, если Вы скачали Чемпион через торрент бесплатно! Внесите свою лепту в развитие PiratBit!
    Комментировать посты могут только пользователи прошедшие не сложную регистрацию
    Показать сообщения:    

    Чемпион через торрент
    Скачать бесплатно Чемпион
    Чемпион скачать торрент
    Чемпион смотреть онлайн
    Cкачать фильм Чемпион бесплатно
    Чемпион скачать торрент в хорошем качестве
    Чемпион смотреть онлайн бесплатно в хорошем качестве


    Вы не можете начинать темы
    Вы не можете отвечать на сообщения
    Вы не можете редактировать свои сообщения
    Вы не можете удалять свои сообщения
    Вы не можете голосовать в опросах
    Вы не можете прикреплять файлы к сообщениям
    Вы можете скачивать файлы