Ссылка на приватное зеркало нашего сайта всего за 1$. Внимание количество ограничено!!!

2 сезон

iTunes

1 сезон

1

iTunes

iTunes

iTunes

1 сезон

RePack

30

ИГРА 18+

pack

ВАЖНО

!!Акция!!

Alien_RageХит недели

RePack

MK11
pack

Забери бонус

RePack

jed

!!Акция!!

Alien_Rage

RePack

fifa19

RePack

Assassins Creed: Odyssey

RePack

NEED FOR SPEED™ PAYBACK

4 сезон

9 сезон

Бесстыжие 9 сезон

Все сериалы

все сериалы на PB.wtf

RePack

FAR CRY 5
  

Путешествие Гектора в поисках счастья / Hector and the Search for Happiness (Питер Челсом ) [2014, драма, комедия, приключения, BDRip 1080p от _denis_100 / NNNB] iTunes + AVO + Original + Sub (Rus,2xEng) pb.wtf

Путешествие Гектора в поисках счастья через торрент pb.wtf

Размер: 11.84 GB | Добавлен: 4 года 3 мес. назад | Торрент скачан:195 раз
Скачать  

16-07-2016 08:19 Путешествие Гектора в поисках счастья Скачать торрент  

Путешествие Гектора в поисках счастья / Hector and the Search for Happiness

«Everyone wants to find it»

Русское название: Путешествие Гектора в поисках счастья
Оригинальное название: Hector and the Search for Happiness
Год выпуска: 2014
Жанр: драма, комедия, приключения
Выпущено: Германия, Канада, Великобритания, ЮАР
Режиссер: Питер Челсом
В ролях: Саймон Пегг , Тони Коллетт , Розамунд Пайк , Стеллан Скарсгард , Жан Рено , Кристофер Пламмер , Трейси Энн Оберман , Вероника Феррес , Барри Атсма , Минг Жао , Того Игава , Брюс Фонтейн

Перевод: Дублированный - [iTunes], Авторский одноголосый



Сюжет фильма:

Гектор - немного эксцентричный, но ужасно обаятельный лондонский психиатр - пребывает в состоянии кризиса, вызванного тем, что его пациенты не становятся счастливее, несмотря на все его усилия. И однажды Гектор решается самолично отправиться в путешествие по всему свету, чтобы узнать, существует ли счастье вообще и, что еще важнее, существует ли оно для него самого.



Качество: BDRip 1080p
Формат: AVC (библиотека кодирования x.264)
Контейнер (Расширение): MKV
Видео: 1920x804, 12517 Кбит/сек, 24 кадр/сек, 0,338 Бит/[Пиксели*Кадры]
Аудио №1: русский / AC3 / 5.1 / 48 kHz / 384 kbps / 16 bit |Дублированный - [iTunes]|
Аудио №2: русский / AC3 / 5.1 / 48 kHz / 640 kbps / 16 bit |Авторский одноголосый, А. Карповский|
Аудио №3: английский / AC3 / 5.1 / 48 kHz / 640 kbps /
Субтитры: русские (А.Кузнецова), английские, английские (SDH)
Навигация по главам(Чаптеры): есть
Продолжительность: 01:59:39
Видеоряд: WiKiРелиз от: Сообщество: Авторский перевод Карповского и субтитры отдельно:
Format : Matroska
Format version : Version 2
File size : 11.8 GiB
Duration : 1h 59mn
Overall bit rate : 14.2 Mbps
Movie name : Hector and the Search for Happiness.(2014).BDRip.1080p.[denis100]
Encoded date : UTC 2016-07-08 06:17:32
Writing application : mkvmerge v5.8.0 ('No Sleep / Pillow') built on Sep 2 2012 15:37:04
Writing library : libebml v1.2.3 + libmatroska v1.3.0

Video
ID : 1
Format : AVC
Format/Info : Advanced Video Codec
Format profile : High@L4.1
Format settings, CABAC : Yes
Format settings, ReFrames : 5 frames
Codec ID : V_MPEG4/ISO/AVC
Duration : 1h 59mn
Bit rate : 12.5 Mbps
Width : 1 920 pixels
Height : 804 pixels
Display aspect ratio : 2.40:1
Frame rate : 24.000 fps
Color space : YUV
Chroma subsampling : 4:2:0
Bit depth : 8 bits
Scan type : Progressive
Bits/(Pixel*Frame) : 0.338
Stream size : 10.2 GiB (86%)
Title : Hector and the Search for Happiness.(2014).BDRip.1080p.[denis100]
Writing library : x264 core 129 r2245 bc13772
Encoding settings : cabac=1 / ref=5 / deblock=1:-3:-3 / analyse=0x3:0x133 / me=umh / subme=11 / psy=1 / psy_rd=1.05:0.05 / mixed_ref=1 / me_range=64 / chroma_me=1 / trellis=2 / 8x8dct=1 / cqm=0 / deadzone=21,11 / fast_pskip=0 / chroma_qp_offset=-3 / threads=12 / lookahead_threads=2 / sliced_threads=0 / nr=0 / decimate=1 / interlaced=0 / bluray_compat=0 / constrained_intra=0 / bframes=8 / b_pyramid=2 / b_adapt=2 / b_bias=0 / direct=3 / weightb=1 / open_gop=0 / weightp=2 / keyint=250 / keyint_min=24 / scenecut=40 / intra_refresh=0 / rc_lookahead=60 / rc=2pass / mbtree=1 / bitrate=12517 / ratetol=1.0 / qcomp=0.60 / qpmin=0 / qpmax=69 / qpstep=4 / cplxblur=20.0 / qblur=0.5 / vbv_maxrate=40000 / vbv_bufsize=30000 / nal_hrd=none / ip_ratio=1.40 / aq=1:0.80
Language : English
Default : Yes
Forced : No

Audio #1
ID : 2
Format : AC-3
Format/Info : Audio Coding 3
Mode extension : CM (complete main)
Codec ID : A_AC3
Duration : 1h 59mn
Bit rate mode : Constant
Bit rate : 384 Kbps
Channel(s) : 6 channels
Channel positions : Front: L C R, Side: L R, LFE
Sampling rate : 48.0 KHz
Bit depth : 16 bits
Compression mode : Lossy
Stream size : 329 MiB (3%)
Title : iTunes
Language : Russian
Default : No
Forced : No

Audio #2
ID : 3
Format : AC-3
Format/Info : Audio Coding 3
Mode extension : CM (complete main)
Codec ID : A_AC3
Duration : 1h 59mn
Bit rate mode : Constant
Bit rate : 640 Kbps
Channel(s) : 6 channels
Channel positions : Front: L C R, Side: L R, LFE
Sampling rate : 48.0 KHz
Bit depth : 16 bits
Compression mode : Lossy
Delay relative to video : 9s 820ms
Stream size : 548 MiB (5%)
Title : AVO, Карповский
Language : Russian
Default : No
Forced : No

Audio #3
ID : 4
Format : AC-3
Format/Info : Audio Coding 3
Mode extension : CM (complete main)
Codec ID : A_AC3
Duration : 1h 59mn
Bit rate mode : Constant
Bit rate : 640 Kbps
Channel(s) : 6 channels
Channel positions : Front: L C R, Side: L R, LFE
Sampling rate : 48.0 KHz
Bit depth : 16 bits
Compression mode : Lossy
Stream size : 548 MiB (5%)
Language : English
Default : No
Forced : No

Text #1
ID : 5
Format : UTF-8
Codec ID : S_TEXT/UTF8
Codec ID/Info : UTF-8 Plain Text
Title : А.Кузнецова
Language : Russian
Default : No
Forced : No

Text #2
ID : 6
Format : UTF-8
Codec ID : S_TEXT/UTF8
Codec ID/Info : UTF-8 Plain Text
Language : English
Default : No
Forced : No

Text #3
ID : 7
Format : UTF-8
Codec ID : S_TEXT/UTF8
Codec ID/Info : UTF-8 Plain Text
Title : SDH
Language : English
Default : No
Forced : No

Menu
00:00:00.000 : :(01)00:00:00:000
00:04:28.475 : :(02)00:04:28:475
00:10:01.142 : :(03)00:10:01:142
00:14:14.311 : :(04)00:14:14:311
00:18:23.101 : :(05)00:18:23:101
00:22:19.961 : :(06)00:22:19:961
00:26:27.335 : :(07)00:26:27:335
00:30:14.644 : :(08)00:30:14:644
00:34:11.840 : :(09)00:34:11:840
00:38:02.655 : :(10)00:38:02:655
00:41:38.244 : :(11)00:41:38:244
00:47:42.233 : :(12)00:47:42:233
00:53:17.902 : :(13)00:53:17:902
00:57:32.782 : :(14)00:57:32:782
01:02:56.938 : :(15)01:02:56:938
01:08:35.359 : :(16)01:08:35:359
01:16:01.845 : :(17)01:16:01:845
01:20:19.479 : :(18)01:20:19:479
01:27:27.742 : :(19)01:27:27:742
01:33:00.282 : :(20)01:33:00:282
01:39:56.529 : :(21)01:39:56:529
01:44:35.725 : :(22)01:44:35:725
01:49:31.854 : :(23)01:49:31:854
01:54:31.529 : :(24)01:54:31:529
01:59:34.917 : :(25)01:59:34:917
pb.wtf



Скачать Путешествие Гектора в поисках счастья через торрент http://i5.imageban.ru/out/2016/07/08/d27720a3834bc34367003c1885e67a10.png Скачать фильм Путешествие Гектора в поисках счастья через торрент бесплантно в хорошем качестве В ролях: Саймон Пегг , Тони Коллетт , Розамунд Пайк , Стеллан Скарсгард , Жан Рено , Кристофер Пламмер , Трейси Энн Оберман , Вероника ... 10 10 2
Info! Золотая раздача, скачанное не засчитывается.
Торрент: Зарегистрирован [2016-07-16 08:22] · скачан: 195 раз
Статус: √ проверено
Размер: 11.84 GB
Как cкачать? Как скачать Путешествие Гектора в поисках счастья через торрент | qTorrent

% Раздел Тема Автор DL S | L
Фильмы [HD 720p, 1080p] (Хороший звук DUB, MVO) [ 4.68 GB ] Путешествие Гектора в поисках счастья / Hector and the Search for Happiness [2014 BDRip 720p ] Assasinca Скачать
1 | 0
Фильмы (Blu-ray, BD-Remux, HDDVD) [ 28.24 GB ] Путешествие Гектора в поисках счастья / Hector and the Search for Happiness [2014 Blu-Ray Remux] [1080p] [] + [AVO] killermax2013 Скачать
1 | 0
Фильмы 2014 [DVDrip, WEB-DLRip, HDrip] [ 2.94 GB ] Путешествие Гектора в поисках счастья / Hector and the Search for Happiness [2014 BDRip-AVC ] Assasinca Скачать
1 | 0
Фильмы 2014 [DVDrip, WEB-DLRip, HDrip] [ 1.46 GB ] Путешествие Гектора в поисках счастья / Hector and the Search for Happiness [2014 HDRip Дублированное Ворон Скачать
1 | 0
Фильмы [HD 720p, 1080p] (Хороший звук DUB, MVO) [ 10.91 GB ] Путешествие Гектора в поисках счастья / Hector and the Search for Happiness [2014 BDRip Дублированное Ворон Скачать
1 | 0

28-11-2019 20:33  

Отключить всю рекламу на сайте

    Дорогой пользователь! Огромная просьба, поблагодарите релизера, оцените раздачу и оставьте свои комментарий, если Вы скачали Путешествие Гектора в поисках счастья через торрент бесплатно! Внесите свою лепту в развитие PiratBit!
    Комментировать посты могут только пользователи прошедшие не сложную регистрацию
    Показать сообщения:    

    Путешествие Гектора в поисках счастья через торрент
    Скачать бесплатно Путешествие Гектора в поисках счастья
    Путешествие Гектора в поисках счастья скачать торрент
    Путешествие Гектора в поисках счастья смотреть онлайн
    Cкачать фильм Путешествие Гектора в поисках счастья бесплатно
    Путешествие Гектора в поисках счастья скачать торрент в хорошем качестве
    Путешествие Гектора в поисках счастья смотреть онлайн бесплатно в хорошем качестве


    Вы не можете начинать темы
    Вы не можете отвечать на сообщения
    Вы не можете редактировать свои сообщения
    Вы не можете удалять свои сообщения
    Вы не можете голосовать в опросах
    Вы не можете прикреплять файлы к сообщениям
    Вы можете скачивать файлы