Ссылка на приватное зеркало нашего сайта всего за 1$. Внимание количество ограничено!!!

2 сезон

iTunes

1 сезон

1

iTunes

iTunes

iTunes

1 сезон

RePack

30

ИГРА 18+

pack

ВАЖНО

!!Акция!!

Alien_RageХит недели

RePack

MK11
pack

Забери бонус

RePack

jed

!!Акция!!

Alien_Rage

RePack

fifa19

RePack

Assassins Creed: Odyssey

RePack

NEED FOR SPEED™ PAYBACK

4 сезон

9 сезон

Бесстыжие 9 сезон

Все сериалы

все сериалы на PB.wtf

RePack

FAR CRY 5
  

Преступник / Criminal (Ариэль Вромен / Ariel Vromen) [2016, фантастика, боевик, триллер, BDRip 720p от _denis_100 / NNNB] Дублированный - [iTunes] pb.wtf

Преступник через торрент pb.wtf

Размер: 6.12 GB | Добавлен: 4 года 3 мес. назад | Торрент скачан:1305 раз
Скачать  

16-07-2016 09:03 Преступник Скачать торрент  

Преступник / Criminal
«The CIA's last hope is in the mind of a criminal»


Год выпуска: 2016
Страна: Великобритания, США
Жанр: фантастика, боевик, триллер, драма, криминал, детектив
Продолжительность: 01:53:34
Перевод: Дублированный - [iTunes]
Субтитры: английские (Full), английские (SDH)
Режиссер: Ариэль Вромен
В ролях: Кевин Костнер , Гари Олдман , Томми Ли Джонс , Райан Рейнольдс , Элис Ив , Галь Гадот , Хорди Молья , Майкл Питт , Амори Ноласко , Антье Трауэ , Скотт Эдкинс , Лара Дэкаро
Описание:
В последней отчаянной попытке остановить катастрофу мирового масштаба генетики осуществляют невероятную операцию по вживлению воспоминаний и умений погибшего оперативника ЦРУ в тело опасного заключенного с надеждой, что тот доведет до конца прерванную миссию агента.

R - Лицам до 17 лет обязательно присутствие взрослого
Качество: BDRip 720p
Контейнер (Расширение): MKV
Видео: 1280x536, 6541 Кбит/сек, 23,976 кадр/сек, 0,398 Бит/[Пиксели*Кадры]
Аудио №1: русский / AC3 / 5.1 / 48 kHz / 384 kbps / 16 bit |Дублированный - [iTunes]|
Аудио №2: английский / AC3 / 5.1 / 48 kHz / 640 kbps / 16 bit
Навигация по главам(Чаптеры): есть
Видеоряд: HiDtРелиз от: Сообщество:

Код:

General
Unique ID                                : 216291468088025455400922473323351203647 (0xA2B838B4EB8688A49598563D54BF5F3F)
Complete name                            : G:\NNNB\NNNB 720p\Criminal.(2016).BDRip.720p.[denis100].mkv
Format                                   : Matroska
Format version                           : Version 2
File size                                : 6.12 GiB
Duration                                 : 1h 53mn
Overall bit rate                         : 7 719 Kbps
Movie name                               : Criminal.(2016).BDRip.720p.[denis100]
Encoded date                             : UTC 2016-07-16 08:26:03
Writing application                      : mkvmerge v5.8.0 ('No Sleep / Pillow') built on Sep  2 2012 15:37:04
Writing library                          : libebml v1.2.3 + libmatroska v1.3.0

Video
ID                                       : 1
Format                                   : AVC
Format/Info                              : Advanced Video Codec
Format profile                           : High@L4.1
Format settings, CABAC                   : Yes
Format settings, ReFrames                : 12 frames
Codec ID                                 : V_MPEG4/ISO/AVC
Duration                                 : 1h 53mn
Bit rate                                 : 6 542 Kbps
Width                                    : 1 280 pixels
Height                                   : 536 pixels
Display aspect ratio                     : 2.40:1
Frame rate                               : 23.976 fps
Color space                              : YUV
Chroma subsampling                       : 4:2:0
Bit depth                                : 8 bits
Scan type                                : Progressive
Bits/(Pixel*Frame)                       : 0.398
Stream size                              : 5.19 GiB (85%)
Title                                    : Criminal.(2016).BDRip.720p.[denis100]
Writing library                          : x264 core 148 r2638 7599210
Encoding settings                        : cabac=1 / ref=12 / deblock=1:-3:-3 / analyse=0x3:0x133 / me=tesa / subme=11 / psy=1 / psy_rd=1.00:0.00 / mixed_ref=1 / me_range=24 / chroma_me=1 / trellis=2 / 8x8dct=1 / cqm=0 / deadzone=21,11 / fast_pskip=0 / chroma_qp_offset=-2 / threads=12 / lookahead_threads=3 / sliced_threads=0 / nr=0 / decimate=1 / interlaced=0 / bluray_compat=0 / constrained_intra=0 / bframes=10 / b_pyramid=2 / b_adapt=2 / b_bias=0 / direct=3 / weightb=1 / open_gop=0 / weightp=2 / keyint=240 / keyint_min=23 / scenecut=40 / intra_refresh=0 / rc_lookahead=60 / rc=crf / mbtree=0 / crf=15.7 / qcomp=0.73 / qpmin=0 / qpmax=69 / qpstep=4 / vbv_maxrate=62500 / vbv_bufsize=78125 / crf_max=0.0 / nal_hrd=none / filler=0 / ip_ratio=1.32 / pb_ratio=1.17 / aq=1:0.80
Language                                 : English
Default                                  : Yes
Forced                                   : No

Audio #1
ID                                       : 2
Format                                   : AC-3
Format/Info                              : Audio Coding 3
Mode extension                           : CM (complete main)
Codec ID                                 : A_AC3
Duration                                 : 1h 53mn
Bit rate mode                            : Constant
Bit rate                                 : 384 Kbps
Channel(s)                               : 6 channels
Channel positions                        : Front: L C R, Side: L R, LFE
Sampling rate                            : 48.0 KHz
Bit depth                                : 16 bits
Compression mode                         : Lossy
Stream size                              : 312 MiB (5%)
Title                                    : DUB, iTunes
Language                                 : Russian
Default                                  : Yes
Forced                                   : No

Audio #2
ID                                       : 3
Format                                   : AC-3
Format/Info                              : Audio Coding 3
Mode extension                           : CM (complete main)
Codec ID                                 : A_AC3
Duration                                 : 1h 53mn
Bit rate mode                            : Constant
Bit rate                                 : 640 Kbps
Channel(s)                               : 6 channels
Channel positions                        : Front: L C R, Side: L R, LFE
Sampling rate                            : 48.0 KHz
Bit depth                                : 16 bits
Compression mode                         : Lossy
Stream size                              : 520 MiB (8%)
Language                                 : English
Default                                  : No
Forced                                   : No

Text #1
ID                                       : 4
Format                                   : UTF-8
Codec ID                                 : S_TEXT/UTF8
Codec ID/Info                            : UTF-8 Plain Text
Title                                    : Full
Language                                 : English
Default                                  : No
Forced                                   : No

Text #2
ID                                       : 5
Format                                   : UTF-8
Codec ID                                 : S_TEXT/UTF8
Codec ID/Info                            : UTF-8 Plain Text
Title                                    : SDH
Language                                 : English
Default                                  : No
Forced                                   : No

Menu
00:00:00.000                             : en:Chapter 1
00:10:41.266                             : en:Chapter 2
00:15:32.265                             : en:Chapter 3
00:23:45.340                             : en:Chapter 4
00:30:56.563                             : en:Chapter 5
00:36:01.367                             : en:Chapter 6
00:45:36.317                             : en:Chapter 7
00:48:48.509                             : en:Chapter 8
00:54:51.455                             : en:Chapter 9
01:01:46.244                             : en:Chapter 10
01:08:32.608                             : en:Chapter 11
01:16:11.609                             : en:Chapter 12
01:22:20.143                             : en:Chapter 13
01:29:52.011                             : en:Chapter 14
01:36:46.092                             : en:Chapter 15
01:42:08.497                             : en:Chapter 16

pb.wtf



Скачать Преступник через торрент http://i4.imageban.ru/out/2016/07/16/4cdfd68b24803f6bd8e4a774ff2ec5ba.png Скачать фильм Преступник через торрент бесплантно в хорошем качестве Описание:В последней отчаянной попытке остановить катастрофу мирового масштаба генетики осуществляют невероятную операцию по вживлению ... 9 10 20
Info! Золотая раздача, скачанное не засчитывается.
Торрент: Зарегистрирован [2016-07-16 09:03] · скачан: 1 305 раз
Статус: √ проверено
Размер: 6.12 GB
Как cкачать? Как скачать Преступник через торрент | qTorrent

% Раздел Тема Автор DL S | L
Ultra HD (UHD: 2K, 4K, 8K) — видео сверхвысокой чёткости [ 61.08 GB ] Преступник / Criminal [2015 UHD BDRemux 2160p] DUB [] + 3xAVO sheker187 Скачать
1 | 0
Зарубежные сериалы [ 5.69 GB ] Преступник: Испания / Criminal: Spain / Сезон: 1 / Серии: 1-3 из 3 [2019 WEB-DL 1080p] MVO [TVShows] bober100 Скачать
1 | 0
Зарубежные сериалы [ 23.26 GB ] Преступник: Антология / Criminal: Anthology / Сезон: 1 / Серия: 1-12 из 12 [2019 HDR HEVC WEB-DL 1080p] [MVO] killermax2013 Скачать
1 | 0
Зарубежные сериалы [ 1.82 GB ] Преступник: / Criminal: United Kingdom / Сезон: 1 / Серии: 1-3 из 3 [2019 WEBRip] MVO [HDRezka Studio] bober100 Скачать
1 | 0
Зарубежные сериалы [ 7.28 GB ] Преступник: / Criminal: United Kingdom / Сезон: 1 / Серии: 1-3 из 3 [2019 WEBRip 1080p] MVO [HDRezka Studio] bober100 Скачать
1 | 0
Ultra HD (UHD: 2K, 4K, 8K) — видео сверхвысокой чёткости [ 72.97 GB ] Преступник / Criminal [2015 UHD Blu-ray 2160p] [] [Custom] sheker187 Скачать
1 | 0
Зарубежные сериалы [ 41.76 GB ] Мыслить как преступник / Criminal Minds / Сезон: 13 / Серии: 1-22 из 22 [2017 WEBRip 720p] MVO [Jaskier] bober100 Скачать
1 | 0

28-11-2019 20:33  

Отключить всю рекламу на сайте

23-07-2016 21:06 Преступник Скачать торрент  

классный фильм. Особенно вторая половина!!! Смотрите!pb.wtf



22-10-2016 19:22 Преступник Скачать торрент  

не сомневаюсь что они сняли это красиво и зрелищно. они это умеют - морду и член одного человека пересадить другому, бабе хрен присобачить, а из мужика сделать Памелу Андерсон, задрота, курящего траву и рисующего комиксы про гориллу превращают в киллера, убивающего наемников ЦРУ ложкой и бумажным стаканом с лапшой. и самое главное - ЧТО МЫ ЭТО СМОТРИМ. некоторые даже пытаются подражать. люди! будьте собой и живите СВОЕЙ жизнью, не уподобляйтесь мартышкамpb.wtf



22-10-2016 19:23 Преступник Скачать торрент  

Apofioz писал(а):

классный фильм. Особенно вторая половина!!! Смотрите!

Была у меня одна девочка. Такая задница у нее классная была! Особенно вторая половина!!!pb.wtf



    Дорогой пользователь! Огромная просьба, поблагодарите релизера, оцените раздачу и оставьте свои комментарий, если Вы скачали Преступник через торрент бесплатно! Внесите свою лепту в развитие PiratBit!
    Комментировать посты могут только пользователи прошедшие не сложную регистрацию
    Показать сообщения:    

    Преступник через торрент
    Скачать бесплатно Преступник
    Преступник скачать торрент
    Преступник смотреть онлайн
    Cкачать фильм Преступник бесплатно
    Преступник скачать торрент в хорошем качестве
    Преступник смотреть онлайн бесплатно в хорошем качестве


    Вы не можете начинать темы
    Вы не можете отвечать на сообщения
    Вы не можете редактировать свои сообщения
    Вы не можете удалять свои сообщения
    Вы не можете голосовать в опросах
    Вы не можете прикреплять файлы к сообщениям
    Вы можете скачивать файлы