Ссылка на приватное зеркало нашего сайта всего за 1$. Внимание количество ограничено!!!

2 сезон

iTunes

1 сезон

1

2 сезон

2 сезон

iTunes

1 сезон

RePack

30

Ultimate

ВАЖНО

ИГРА 18+

pack

RePack

MK11
pack

Забери бонус

RePack

jed

!!Акция!!

Alien_Rage

RePack

fifa19

RePack

Assassins Creed: Odyssey

RePack

NEED FOR SPEED™ PAYBACK

4 сезон

9 сезон

Бесстыжие 9 сезон

Все сериалы

все сериалы на PB.wtf

RePack

FAR CRY 5
  

Сверхсилы / Сверхспособности / Powers / Сезон: 2 / Серии 1-10 из 10 (Микаэл Саломон / Mikael Salomon, Аарон Липстадт / Aaron Lipstadt, Билл Иглз / Bill Eagles) [2016, США, фантастика, боевик, драма, WEB-DLRip-AVC] MVO [BaibaKo] pb.wtf

Сверхсилы через торрент pb.wtf

Размер: 7.64 GB | Добавлен: 4 года 4 мес. назад | Торрент скачан:113 раз
Скачать  

17-07-2016 02:04 Сверхсилы Скачать торрент  

Сверхсилы / Сверхспособности / Powers
«Real power lies within»


  • Год выпуска: 2016
  • Страна: США
  • Жанр: фантастика, боевик, драма, криминал
  • Продолжительность: 00:45:16 (Серия)
  • Перевод: Профессиональный многоголосый закадровый [BaibaKo]
  • Режиссер: Микаэл Саломон / Mikael Salomon, Аарон Липстадт / Aaron Lipstadt, Билл Иглз / Bill Eagles
  • В ролях:

    Шарлто Копли (Christian Walker), Сьюзэн Хэйард (Deena Pilgrim), Олеся Рулин (Calista Secor), Адам Годли (Emile Cross), Макс Фаулер (Krispin Stockley), Логан Браунинг (Zora), Джастис Лик (Kutter), Эндрю Сенсениг (Triphammer), Майкл Лоури (Craig Sherman), Мишель Форбс (Retro Girl), Ноа Тейлор (Johnny Royalle), Майкл Мэдсен (Patrick)


  • Сюжет сериала разворачивается в мире, где супергерои живут среди обычных людей. Сотрудники убойного отдела Кристиан Уокер и Дина Пилгрим занимаются защитой простых людей от преступников со сверхспособностями и расследуют дела, в которых замешаны эти супергерои.
  • Рейтинг:



  • Качество: WEB-DLRip-AVC
  • Формат: :MPEG-4
  • Видео кодек: AVC
  • Аудио кодек: AC3
  • Видео: 1024x576 (16:9), 2200 kbps, 60 fps, 0,062 bpp
  • Аудио №1: русский / 2.0 / 48 kHz / 192 kbps / 16 bit |[BaibaKo]|
  • Аудио №2: английский / 2.0 / 48 kHz / 192 kbps / 16 bit
  • Релиз от: GEKADOL

    Код:

    Внимание! Раздача ведётся путём добавления новых серий; при каждом добавлении создаётся новый торрент. Чтобы начать докачку новой серии, пользователям необходимо сделать следующее:
    (1) остановить скачивание,
    (2) удалить старый торрент у себя из клиента (старые серии удалять не надо),
    (3) скачать новый торрент и запустить его у себя в клиенте вместо старого, при этом указать клиенту путь в старую папку куда и должно происходить скачивание новых серий.
    Ваш клиент при этом должен произвести хеширование (проверку) старой папки (если не производит сам - помогите ему сделать это), и будет докачивать только те серии которых у вас ещё нет. Старые серии при этом не удаляются, а продолжают раздаваться!
    Eсли вы уже удалили старые серии, то предотвратить повторную закачку старых серий можно, отжав галочку в соответствующих местах при запуске нового торрента. По возможности, желательно не удалять старые серии как можно дольше чтобы релизёр не столько продолжал раздавать старые серии, а смог сконцентрироваться на новых.


    Код:

    General
    Complete name                            : H:\Сверхсилы Сезон 2 (Powers)\Powers.s02e08.WEBRip-AVC.Rus.Eng.BaibaKo.tv.mp4
    Format                                   : MPEG-4
    Format profile                           : Base Media
    Codec ID                                 : isom
    File size                                : 836 MiB
    Duration                                 : 45mn 16s
    Overall bit rate                         : 2 580 Kbps
    Writing application                      : XviD4PSP 7.0.277 DAILY
    hdvd                                     : 1
    iTunMOVI                                 : <?xml version="1.0" encoding="UTF-8"?> / <!DOCTYPE plist PUBLIC "-//Apple//DTD PLIST 1.0//EN" "http://www.apple.com/DTDs/PropertyList-1.0.dtd"> / <plist version="1.0"> / <dict> /     <key>encoding_info</key> /     <array> /         <dict> /             <key>name</key> /             <string>MATROSKA</string> /         </dict> /         <dict> /             <key>name</key> /             <string><![CDATA[WEBM > MP4 Произвольный / H264 > X264 CBR 2200kbps HQ / AC3 > AC3 CBR 192kbps / AC3 > AC3 CBR 192kbps]]></string> /         </dict> /     </array> / </dict> / </plist>

    Video
    ID                                       : 1
    Format                                   : AVC
    Format/Info                              : Advanced Video Codec
    Format profile                           : High@L4.1
    Format settings, CABAC                   : Yes
    Format settings, ReFrames                : 4 frames
    Codec ID                                 : avc1
    Codec ID/Info                            : Advanced Video Coding
    Duration                                 : 45mn 16s
    Bit rate                                 : 2 200 Kbps
    Width                                    : 1 024 pixels
    Height                                   : 576 pixels
    Display aspect ratio                     : 16:9
    Frame rate mode                          : Constant
    Frame rate                               : 60.000 fps
    Color space                              : YUV
    Chroma subsampling                       : 4:2:0
    Bit depth                                : 8 bits
    Scan type                                : Progressive
    Bits/(Pixel*Frame)                       : 0.062
    Stream size                              : 708 MiB (85%)
    Writing library                          : x264 core 148 r2705M 3f5ed56
    Encoding settings                        : cabac=1 / ref=3 / deblock=1:-1:-1 / analyse=0x3:0x133 / me=hex / subme=7 / psy=1 / psy_rd=1.00:0.20 / mixed_ref=1 / me_range=16 / chroma_me=1 / trellis=1 / 8x8dct=1 / cqm=0 / deadzone=21,11 / fast_pskip=1 / chroma_qp_offset=-3 / threads=5 / lookahead_threads=1 / sliced_threads=0 / nr=0 / decimate=1 / interlaced=0 / bluray_compat=0 / constrained_intra=0 / bframes=3 / b_pyramid=2 / b_adapt=2 / b_bias=0 / direct=3 / weightb=1 / open_gop=0 / weightp=2 / keyint=250 / keyint_min=25 / scenecut=40 / intra_refresh=0 / rc_lookahead=40 / rc=cbr / mbtree=1 / bitrate=2200 / ratetol=1.0 / qcomp=0.60 / qpmin=0 / qpmax=69 / qpstep=4 / vbv_maxrate=2200 / vbv_bufsize=30000 / nal_hrd=none / filler=0 / ip_ratio=1.40 / aq=1:1.00

    Audio #1
    ID                                       : 2
    Format                                   : AC-3
    Format/Info                              : Audio Coding 3
    Mode extension                           : CM (complete main)
    Codec ID                                 : ac-3
    Duration                                 : 45mn 16s
    Bit rate mode                            : Constant
    Bit rate                                 : 192 Kbps
    Channel(s)                               : 2 channels
    Channel positions                        : Front: L R
    Sampling rate                            : 48.0 KHz
    Bit depth                                : 16 bits
    Compression mode                         : Lossy
    Stream size                              : 62.2 MiB (7%)
    Language                                 : Russian

    Audio #2
    ID                                       : 3
    Format                                   : AC-3
    Format/Info                              : Audio Coding 3
    Mode extension                           : CM (complete main)
    Codec ID                                 : ac-3
    Duration                                 : 45mn 16s
    Bit rate mode                            : Constant
    Bit rate                                 : 192 Kbps
    Channel(s)                               : 2 channels
    Channel positions                        : Front: L R
    Sampling rate                            : 48.0 KHz
    Bit depth                                : 16 bits
    Compression mode                         : Lossy
    Stream size                              : 62.2 MiB (7%)
    Language                                 : English


    Скриншоты:
    скриншот   скриншот   скриншот   скриншот   скриншот   скриншот   скриншот  
    скриншот  

    Раздача ведётся путём добавления новых серий. Добавлена 10 серия (24.07.2016).Просьба перекачать торрент файл.

    pb.wtf



  • Скачать Сверхсилы через торрент http://pic1.kartinco.top/images/10/8zmqx.jpg Скачать фильм Сверхсилы через торрент бесплантно в хорошем качестве qw.png Сюжет сериала разворачивается в мире, где супергерои живут среди обычных людей. Сотрудники убойного отдела Кристиан Уокер и Дина ... 9.6 10 10
    Info! Золотая раздача, скачанное не засчитывается.
    Торрент: Зарегистрирован [2016-07-24 04:24] · скачан: 113 раз
    Статус: √ проверено
    Размер: 7.64 GB
    Как cкачать? Как скачать Сверхсилы через торрент | qTorrent

    28-11-2019 20:33  

    Отключить всю рекламу на сайте

      Дорогой пользователь! Огромная просьба, поблагодарите релизера, оцените раздачу и оставьте свои комментарий, если Вы скачали Сверхсилы через торрент бесплатно! Внесите свою лепту в развитие PiratBit!
      Комментировать посты могут только пользователи прошедшие не сложную регистрацию
      Показать сообщения:    

      Сверхсилы через торрент
      Скачать бесплатно Сверхсилы
      Сверхсилы скачать торрент
      Сверхсилы смотреть онлайн
      Cкачать фильм Сверхсилы бесплатно
      Сверхсилы скачать торрент в хорошем качестве
      Сверхсилы смотреть онлайн бесплатно в хорошем качестве


      Вы не можете начинать темы
      Вы не можете отвечать на сообщения
      Вы не можете редактировать свои сообщения
      Вы не можете удалять свои сообщения
      Вы не можете голосовать в опросах
      Вы не можете прикреплять файлы к сообщениям
      Вы можете скачивать файлы