Ссылка на приватное зеркало всего за 1$. Внимание количество ограничено!!!

iTunes

iTunes

iTunes

1

iTunes

iTunes

iTunes

iTunes

iTunes

30
pack

Новость дня

ВАЖНО

!!Акция!!

Alien_RageХит недели

RePack

Resident Evil 21

ИГРА 18+

pack

RePack

jed

!!Акция!!

Alien_Rage

RePack

fifa19

RePack

Assassins Creed: Odyssey

RePack

NEED FOR SPEED™ PAYBACK

4 сезон

9 сезон

Бесстыжие 9 сезон

Все сериалы

все сериалы на PB.wtf

RePack

FAR CRY 5
  

Побег из аула. Операция Махаббат / Pobeg iz aula. Operatsiya Makhabbat (Нуртас Адамбай) [2015 г., комедия, мелодрама, WEB-DLRip, Русский] pb.wtf

Побег из аула. Операция Махаббат через торрент pb.wtf

Размер: 1.37 GB | Добавлен: 3 года 10 мес. назад | Торрент скачан:692 раза
Скачать  

17-07-2016 07:07 Побег из аула. Операция Махаббат Скачать торрент  

Побег из аула. Операция Махаббат / Pobeg iz aula. Operatsiya Makhabbat
Год выпуска: 2015
Страна: Казахстан
Жанр: комедия, мелодрама
Продолжительность: 01:36:04
Перевод: Не требуется Русский
Субтитры: Отсутствуют

Режиссер: Нуртас Адамбай
Продюссер: Нуртас Адамбай
Сценарий: Нуртас Адамбай

Премьера в мире: 26 ноября 2015

Рекламы Нет!



В ролях: Нуртас Адамбай, Аружан Джазильбекова, Динмухаммед Ахимов, Максим Акбаров, Ерлан Касымжанулы, Жан Избасар, Алишер Орикбаев, Бауыржан Орда, Айнур Ильясова, Асель Калиева

Описание: Финансовые трудности толкают пятерых лучших друзей на новое авантюрное приключение. Еще вчера они сбежали в город из аула, а сегодня хотят женить Ербола на прекрасной Айсулу — наследнице огромного состояния. Пытаясь создать Ерболу образ богатого жениха-бизнесмена, друзья попадают в крупные неприятности — они берут Роллс Ройс у ничего не подозревающего криминального авторитета Бузаубаса, чем «подписывают» себе приговор. Ербол и его друзья вынуждены лавировать между преступным миром, обманом Айсулу и борьбой с ее женихом-мажором. Эта история перевернется с ног на голову, когда все ее участники раскроют свои карты…

Качество: WEB-DLRip
Формат: AVI
Видео кодек: XviD
Аудио кодек: AC3
Видео: 720x304 (2.37:1), 24 fps, XviD MPEG-4 ~1841 kbps avg, 0.359 bit/pixel
Аудио#1: Русский: 48.0 kHz, AC3 Dolby Digital, 2/0 (L,R) ch, ~192 kbps
скриншот  скриншот  скриншот  скриншот  





General
Complete name : C:\Users\ghdf\Downloads\Pobeg.iz.aula.Operatsiya.Mahabbat.XviD.2015.WEB-DLRip.avi
Format : AVI
Format/Info : Audio Video Interleave
File size : 1.37 GiB
Duration : 1h 36mn
Overall bit rate : 2 042 Kbps
Writing application : VirtualDubMod 1.5.10.3 | www.virtualdub-fr.org || (build 2550/release)
Writing library : VirtualDubMod build 2550/release

Video
ID : 0
Format : MPEG-4 Visual
Format profile : Advanced Simple@L5
Format settings, BVOP : 1
Format settings, QPel : No
Format settings, GMC : No warppoints
Format settings, Matrix : Default (MPEG)
Codec ID : XVID
Codec ID/Hint : XviD
Duration : 1h 36mn
Bit rate : 1 841 Kbps
Width : 720 pixels
Height : 304 pixels
Display aspect ratio : 2.35:1
Frame rate : 24.000 fps
Color space : YUV
Chroma subsampling : 4:2:0
Bit depth : 8 bits
Scan type : Progressive
Compression mode : Lossy
Bits/(Pixel*Frame) : 0.350
Stream size : 1.24 GiB (90%)
Writing library : XviD 64

Audio
ID : 1
Format : AC-3
Format/Info : Audio Coding 3
Mode extension : CM (complete main)
Format settings, Endianness : Big
Codec ID : 2000
Duration : 1h 36mn
Bit rate mode : Constant
Bit rate : 192 Kbps
Channel count : 2 channels
Channel positions : Front: L R
Sampling rate : 44.1 KHz
Bit depth : 16 bits
Compression mode : Lossy
Stream size : 132 MiB (9%)
Alignment : Split accross interleaves
Interleave, duration : 42 ms (1.00 video frame)
Interleave, preload duration : 500 ms

pb.wtf



Скачать Побег из аула. Операция Махаббат через торрент http://i78.fastpic.ru/big/2016/0717/43/d2c149efbbe5d5252804b888c3361143.jpg Скачать фильм Побег из аула. Операция Махаббат через торрент бесплантно в хорошем качестве Описание: Финансовые трудности толкают пятерых лучших друзей на новое авантюрное . Еще вчера они сбежали в город из аула, а ... 9.3 10 15
Торрент: Зарегистрирован [2016-07-17 07:07] · скачан: 692 раз
Статус: T временная
Размер: 1.37 GB
Как cкачать? Как скачать Побег из аула. Операция Махаббат через торрент | qTorrent

28-11-2019 20:33  

Отключить всю рекламу на сайте

17-07-2016 10:51 Побег из аула. Операция Махаббат Скачать торрент  

Сначала почесал в затылке,увидев чей т.с. продакшн.И очень сильно удидивился когда прочитал в сети абсолютно положительные комменты.Спасибо,качаю.pb.wtf



17-07-2016 12:38 Побег из аула. Операция Махаббат Скачать торрент  

Надо тоже будет посмотреть) надеюсь не шлак)pb.wtf



18-07-2016 20:39 Побег из аула. Операция Махаббат Скачать торрент  

Прикольный фильмец. Наивный...но прикольный.pb.wtf



09-08-2016 20:57 Побег из аула. Операция Махаббат Скачать торрент  

Побег из аула)))) Куда бежали???? А главное кто бежал))))) От судьбы не уйдешь))))pb.wtf



04-09-2016 17:45 Побег из аула. Операция Махаббат Скачать торрент  

Увы,не осилил.Мне напомнил экранную версию КВН.Выступление команды из Камызяк.Даже интонации те же.pb.wtf



    Дорогой пользователь! Огромная просьба, поблагодарите релизера, оцените раздачу и оставьте свои комментарий, если Вы скачали Побег из аула. Операция Махаббат через торрент бесплатно! Внесите свою лепту в развитие PiratBit!
    Комментировать посты могут только пользователи прошедшие не сложную регистрацию
    Показать сообщения:    

    Побег из аула. Операция Махаббат через торрент
    Скачать бесплатно Побег из аула. Операция Махаббат
    Побег из аула. Операция Махаббат скачать торрент
    Побег из аула. Операция Махаббат смотреть онлайн
    Cкачать фильм Побег из аула. Операция Махаббат бесплатно
    Побег из аула. Операция Махаббат скачать торрент в хорошем качестве
    Побег из аула. Операция Махаббат смотреть онлайн бесплатно в хорошем качестве


    Вы не можете начинать темы
    Вы не можете отвечать на сообщения
    Вы не можете редактировать свои сообщения
    Вы не можете удалять свои сообщения
    Вы не можете голосовать в опросах
    Вы не можете прикреплять файлы к сообщениям
    Вы можете скачивать файлы