Death Stranding+DLC+АВТОАКТИВАЦИЯ

iTunes

iTunes

iTunes

1

iTunes

iTunes

iTunes

iTunes

iTunes

30
pack

$ от Little Big

ВАЖНО

!!Акция!!

Alien_RageХит недели

RePack

Resident Evil 21

ИГРА 18+

pack

RePack

jed

!!Акция!!

Alien_Rage

RePack

fifa19

RePack

Assassins Creed: Odyssey

RePack

NEED FOR SPEED™ PAYBACK

4 сезон

9 сезон

Бесстыжие 9 сезон

Все сериалы

все сериалы на PB.wtf

RePack

FAR CRY 5
  

Чудеса с небес / Miracles from Heaven (2016) WEB-DL 1080p от ExKinoRay / iTunes pb.wtf

Чудеса с небес через торрент pb.wtf

Размер: 4.47 GB | Добавлен: 3 года 11 мес. назад | Торрент скачан:135 раз
Скачать  

17-07-2016 08:34 Чудеса с небес Скачать торрент  

Информация о фильме

Название: Чудеса с небес

Оригинальное название: Miracles from Heaven

Год выхода: 2016

Жанр: Драма

Режиссер: Патрисия Ригген

В ролях: Дженнифер Гарнер, Кайли Роджерс, Мартин Хендерсон, Брайтон Шарбино, Кортни Фанслер, Куин Латифа, Брайс Зенткович, Эухенио Дербес, Келли Коллинз, Джон Кэрролл Линч

Описание:

Удивительная история, в которую невозможно поверить, не увидев собственными глазами. Когда кажется все потеряно, и впереди только боль и отчаяние, небеса дарят надежду тем, кто верит.

Страна: США

Студия: Affirm Films, TriStar Pictures

Продолжительность: 01:49:15

Перевод: Профессиональный многоголосый (закадровый) | iTunes

Файл

Кодек: MPEG-4

Качество: WEB-DL 1080p

Видео: 1916x1032, 5088 Kbit/s, 23.976 fps

Звук:

Аудио #01: 48 kHz, AC3, 5.1, 384 Kbps | Профессиональный многоголосый (закадровый), iTunes |AC3

Аудио #02: 48 kHz, AC3, 5.1, 384 kbps | Оригинал |AC3

General

Unique ID : 194071442550948738221385971280112785126 (0x9200CCDD92977F41A653DF84033416E6)

Complete name : F:VideoMiracles.from.Heaven.2016.WEB-DL.1080p.ExKinoRay.mkv

Format : Matroska

Format version : Version 4 / Version 2

File size : 4.47 GiB

Duration : 1h 49mn

Overall bit rate : 5 856 Kbps

Movie name : Miracles.from.Heaven.2016.WEB-DL.1080p.ExKinoRay

Encoded date : UTC 2016-06-15 21:37:04

Writing application : mkvmerge v8.3.0 ('Over the Horizon') 64bit

Writing library : libebml v1.3.1 + libmatroska v1.4.2

Video

ID : 1

Format : AVC

Format/Info : Advanced Video Codec

Format profile : High@L4

Format settings, CABAC : Yes

Format settings, ReFrames : 4 frames

Codec ID : V_MPEG4/ISO/AVC

Duration : 1h 49mn

Bit rate : 5 088 Kbps

Width : 1 916 pixels

Height : 1 032 pixels

Display aspect ratio : 1.85:1

Frame rate mode : Constant

Frame rate : 23.976 (23976/1000) fps

Color space : YUV

Chroma subsampling : 4:2:0

Bit depth : 8 bits

Scan type : Progressive

Bits/(Pixel*Frame) : 0.107

Stream size : 3.88 GiB (87%)

Language : English

Default : Yes

Forced : No

Color range : Limited

Color primaries : BT.709

Transfer characteristics : BT.709

Matrix coefficients : BT.709

Audio #1

ID : 2

Format : AC-3

Format/Info : Audio Coding 3

Mode extension : CM (complete main)

Format settings, Endianness : Big

Codec ID : A_AC3

Duration : 1h 49mn

Bit rate mode : Constant

Bit rate : 384 Kbps

Channel(s) : 6 channels

Channel positions : Front: L C R, Side: L R, LFE

Sampling rate : 48.0 KHz

Frame rate : 31.250 fps (1536 spf)

Compression mode : Lossy

Stream size : 299 MiB (7%)

Title : DUB [iTunes]

Language : Russian

Default : Yes

Forced : No

Audio #2

ID : 3

Format : AC-3

Format/Info : Audio Coding 3

Mode extension : CM (complete main)

Format settings, Endianness : Big

Codec ID : A_AC3

Duration : 1h 49mn

Bit rate mode : Constant

Bit rate : 384 Kbps

Channel(s) : 6 channels

Channel positions : Front: L C R, Side: L R, LFE

Sampling rate : 48.0 KHz

Frame rate : 31.250 fps (1536 spf)

Compression mode : Lossy

Stream size : 299 MiB (7%)

Title : Original

Language : English

Default : No

Forced : No

Menu

00:00:00.000 : en:1

00:06:09.244 : en:2

00:12:47.183 : en:3

00:19:16.155 : en:4

00:26:48.607 : en:5

00:33:37.807 : en:6

00:39:38.542 : en:7

00:45:46.785 : en:8

00:53:36.212 : en:9

01:00:57.570 : en:10

01:08:35.110 : en:11

01:16:12.358 : en:12

01:23:12.653 : en:13

01:29:05.589 : en:14

01:35:58.668 : en:15

01:43:03.175 : en:16
pb.wtf



Скачать Чудеса с небес через торрент http://s018.radikal.ru/i502/1606/9a/f19e754df810.jpg Скачать фильм Чудеса с небес через торрент бесплантно в хорошем качестве Описание: Удивительная история, в которую невозможно поверить, не увидев собственными глазами. Когда кажется все потеряно, и впереди только ... 10 10 3
Торрент: Зарегистрирован [2016-07-17 08:34] · скачан: 135 раз
Статус: √ проверено
Размер: 4.47 GB
Как cкачать? Как скачать Чудеса с небес через торрент | qTorrent



Последний раз редактировалось: Ворон (2016-07-17 12:33), всего редактировалось 1 раз

28-11-2019 20:33  

Отключить всю рекламу на сайте

    Дорогой пользователь! Огромная просьба, поблагодарите релизера, оцените раздачу и оставьте свои комментарий, если Вы скачали Чудеса с небес через торрент бесплатно! Внесите свою лепту в развитие PiratBit!
    Комментировать посты могут только пользователи прошедшие не сложную регистрацию
    Показать сообщения:    

    Чудеса с небес через торрент
    Скачать бесплатно Чудеса с небес
    Чудеса с небес скачать торрент
    Чудеса с небес смотреть онлайн
    Cкачать фильм Чудеса с небес бесплатно
    Чудеса с небес скачать торрент в хорошем качестве
    Чудеса с небес смотреть онлайн бесплатно в хорошем качестве


    Вы не можете начинать темы
    Вы не можете отвечать на сообщения
    Вы не можете редактировать свои сообщения
    Вы не можете удалять свои сообщения
    Вы не можете голосовать в опросах
    Вы не можете прикреплять файлы к сообщениям
    Вы можете скачивать файлы