новый адрес пиратбит piratbit
Мега распродажа FORZA HORIZON 4 ULTIMATE+ВСЕ DLC+ОНЛАЙН всего за 499р. 349 руб. (супер цена). Внимание количество ограничено!!!

iTunes

1+1

iTunes

мы

iTunes

1

iTunes

Чернобыль

iTunes

Ральф против интернета

Лицензия

ПШазам

Лицензия

Игра престолов

Лицензия

30
pack

ВАЖНО

!!Акция!!

Alien_RageХит недели

RePack

Resident Evil 21

ИГРА 18+

pack

RePack

Metro:Exodus

!!Акция!!

Alien_Rage

RePack

fifa19

RePack

Assassins Creed: Odyssey

RePack

NEED FOR SPEED™ PAYBACK

3 сезон

9 сезон

Бесстыжие 9 сезон

Все сериалы

все сериалы на PB.wtf

RePack

FAR CRY 5
Ребята, катастрофически не хватает 1900р. для оплаты серверов за Октябрь (всвязи с блокировками трафик упал в 3 раза), 1-2р., выручайте.
  

Любовь в раю / Love in paradise (Шон МакНамара / Sean McNamara) [2016 г., драма, комедия, HDTVRip, Любительский (одноголосый) pb.wtf

Любовь в раю через торрент pb.wtf

Размер: 1.46 GB | Добавлен: 3 года 3 мес. назад | Торрент скачан:127 раз
Скачать  

17-07-2016 08:37 Любовь в раю Скачать торрент  

Любовь в раю / Love in paradise Год выпуска: 2016
Страна: США, Канада
Жанр: драма, комедия
Продолжительность: 01:23:32
Перевод: Любительский (одноголосый)(Lord32x)
Субтитры: Отсутствуют

Режиссер: Шон МакНамара / Sean McNamara
Продюссер: Нил Х. Доброфски, Типпи Доброфски, Жослин Хэмилтон
Сценарий: Нил Х. Доброфски, Типпи Доброфски, Люк Перри

Премьера в мире: 2 января 2016

лицам до 16 лет обязательно присутствие взрослого
http://www.imdb.com/title/tt5313016/



В ролях: Люк Перри, Эммануэль Вожье, Чад Виллетт, Джошуа Дж. Баллард, Том Батлер

Описание: Эвери Форд - известный актер, сделавший имя и карьеру, играя крутого ковбоя в популярном сериале. Но сейчас дни его славы остались в прошлом. Сьемки сериала приостановлены, а он зарабатывает на жизнь, снимаясь в рекламе. Неожиданно ему поступает заманчивое предложение "поработать лицом" - изображать ковбоя в рамках рекламной кампании конно-спортивного комплекса. Правда для этого ему придется отправиться в глухую провинцию, а он таким переменам в жизни не особо рад...

Доп. информация: Полнометражный фильм канала Hallmark
Сто процентов рафинированной романтики
Красивое кино о красивой жизни

Качество: HDTVRip
Формат: AVI
Видео кодек: XviD
Аудио кодек: MP3
Видео: 2304 Kbps, 720x400 (16:9), 29 970 fps, XviD
Аудио#1: 192 Kbps, 48.0 KHz, MPEG Audio MP 3


  
скриншот  скриншот  скриншот  скриншот  скриншот  





General
Complete name : C:\Users\master\Documents\Downloads\Love.In.Paradise.2016.HDTVRip.avi
Format : AVI
Format/Info : Audio Video Interleave
File size : 1.46 GiB
Duration : 1h 23mn
Overall bit rate : 2 508 Kbps
Writing application : VirtualDubMod 1.5.10.3 (build 2550/release)
Writing library : VirtualDubMod build 2550/release

Video
ID : 0
Format : MPEG-4 Visual
Format profile : Advanced Simple@L5
Format settings, BVOP : 1
Format settings, QPel : No
Format settings, GMC : No warppoints
Format settings, Matrix : Default (H.263)
Codec ID : XVID
Codec ID/Hint : XviD
Duration : 1h 23mn
Bit rate : 2 304 Kbps
Width : 720 pixels
Height : 400 pixels
Display aspect ratio : 16:9
Frame rate : 29.970 fps
Color space : YUV
Chroma subsampling : 4:2:0
Bit depth : 8 bits
Scan type : Progressive
Compression mode : Lossy
Bits/(Pixel*Frame) : 0.267
Stream size : 1.34 GiB (92%)
Writing library : XviD 1.2.1 (UTC 2008-12-04)

Audio
ID : 1
Format : MPEG Audio
Format version : Version 1
Format profile : Layer 3
Mode : Joint stereo
Mode extension : MS Stereo
Codec ID : 55
Codec ID/Hint : MP3
Duration : 1h 23mn
Bit rate mode : Constant
Bit rate : 192 Kbps
Channel(s) : 2 channels
Sampling rate : 48.0 KHz
Compression mode : Lossy
Stream size : 115 MiB (8%)
Alignment : Aligned on interleaves
Interleave, duration : 33 ms (1.00 video frame)
Interleave, preload duration : 504 ms

pb.wtf



Скачать Любовь в раю через торрент http://i79.fastpic.ru/big/2016/0717/6a/eb25ca1e63baefa7441c61c331f1bf6a.png Скачать фильм Любовь в раю через торрент бесплантно в хорошем качестве Описание: Эвери Форд - известный актер, сделавший имя и карьеру, играя крутого ковбоя в популярном сериале. Но сейчас дни его славы ... 10 10 5
Торрент: Зарегистрирован [2016-07-17 08:37] · скачан: 127 раз
Статус: T временная
Размер: 1.46 GB
Как cкачать? Как скачать Любовь в раю через торрент | qTorrent

% Раздел Тема Автор DL S | L
Порно фильмы с сюжетом [ 744 MB ] Смертельная Любовь В Раю. / Deadly Love In Paradise. [2005 All Sex Anal Group Sex DP Outdoor. DVDRip Оригинал] Pir@tya2010 Скачать
1 | 0


>> Регистрируемся здесь <<






Отзывы и комментарии о схеме читаем и пишем здесь: ---> Отзывы и комментарии о схеме

Новые благодарочки в телеграм довольных пользователей:
скриншот   скриншот   скриншот   скриншот   скриншот
    Дорогой пользователь! Огромная просьба, поблагодарите релизера, оцените раздачу и оставьте свои комментарий, если Вы скачали Любовь в раю через торрент бесплатно! Внесите свою лепту в развитие PiratBit!
    Комментировать посты могут только пользователи прошедшие не сложную регистрацию
    Показать сообщения:    

    Любовь в раю через торрент
    Скачать бесплатно Любовь в раю
    Любовь в раю скачать торрент
    Любовь в раю смотреть онлайн
    Cкачать фильм Любовь в раю бесплатно
    Любовь в раю скачать торрент в хорошем качестве
    Любовь в раю смотреть онлайн бесплатно в хорошем качестве


    Вы не можете начинать темы
    Вы не можете отвечать на сообщения
    Вы не можете редактировать свои сообщения
    Вы не можете удалять свои сообщения
    Вы не можете голосовать в опросах
    Вы не можете прикреплять файлы к сообщениям
    Вы можете скачивать файлы