Всегда рабочее зеркало без VPN и Proxy просто перед .vidak.icu напиши любое слово или цифру, Пример http://aplr.vidak.icu

MVO

2 сезон

2 сезон

1

1 сезон

iTunes

2 сезон

13

1 сезон

Deluxe

pack

Рекомендуем

Пиратка

30

ВАЖНО

RePack

MK11

RePack

jed

RePack

fifa19

RePack

RDR2

RePack

NEED FOR SPEED™ PAYBACK

Кинопоиск HD

6 сезон

 Острые козырьки 6 сезон

Все сериалы

все сериалы на PB.wtf

RePack

FAR CRY 5

Anonymous, нам критически не хватает 5601 руб. на оплату серверов и переферии за Апрель, помоги нам пожалуйста, вся надежда только на тебя. В благодарность мы отключим тебе всю рекламу на сайте!

×
  
Magnet ссылка

Приходи на меня посмотреть / Nal boreowayo (2016) WEB-DLRip pb.wtf

Приходи на меня посмотреть через торрент pb.wtf

Размер: 1.45 GB | Добавлен: 5 лет 10 мес. назад | Торрент скачан:12 раз
Смотреть онлайн Приходи на меня посмотреть | Скачать    Ребята, помогите собрать деньги на оплату серверов!!!

17-07-2016 09:06 Приходи на меня посмотреть Скачать торрент  

Приходи на меня посмотреть / Come To See Me / Come Watch Me / Nal boreowayo

Страна: Южная Корея

Производство: OAL Media Contents Group

Год выпуска: 2016

Жанр: триллер

Продолжительность: 01:31:01

Режиссер: Ли Чхоль-ха

В ролях: Кан Е-вон, Ли Сан-юн, Чхве Юн-со

Описание: В руки программного директора телевидения попадает дневник, в котором содержится запись о женщине, которую, якобы, насильно привезли и удерживали в психиатрической лечебнице. Больница сгорела год назад, в тот же день был убит начальник полиции. Выясняется, что по подозрению в убийстве арестовали ту самую женщину. История заинтересовала программного директора, он решает разобраться в ней и узнать правду...



Перевод: Любительский (двухголосый, закадровый) | den904 & DeadSno

Субтитры: нет
Качество: WEB-DLRip

Формат: АVI

Видео кодек: XviD

Аудио кодек: АС3

Видео: 720x304 (2.35:1), 23.976 fps, XviD ~2 079 kbps avg, 0.396 bit/pixel

Аудио: 48.0 kHz, AC3 Dolby Digital, 2/0 (L,R) ch, ~192 kbps

Дата премьеры (мир): 7 апреля 2016ВНИМАНИЕ! Присутствует

ненормативная лексика

General

Полное имя : И узрел я этот день.avi

Формат : AVI

Формат/Информация : Audio Video Interleave

Размер файла : 1,45 Гбайт

Продолжительность : 1 ч. 31 м.

Общий поток : 2281 Кбит/сек

Программа кодирования : VirtualDubMod 1.5.10.3 | (build 2550/release)

Библиотека кодирования : VirtualDubMod build 2550/release

Видео

Идентификатор : 0

Формат : MPEG-4 Visual

Параметр BVOP формата : 1

Параметр QPel формата : Нет

Параметр GMC формата : Без точки перехода

Параметр матрицы формата : Default (H.263)

Идентификатор кодека : XVID

Идентификатор кодека/Подсказка : XviD

Продолжительность : 1 ч. 31 м.

Битрейт : 2079 Кбит/сек

Ширина : 720 пикселей

Высота : 304 пикселя

Соотношение сторон : 2,35:1

Частота кадров : 23,976 (23976/1000) кадра/сек

Цветовое пространство : YUV

Субдискретизация насыщенности : 4:2:0

Битовая глубина : 8 бит

Тип развёртки : Прогрессивная

Метод сжатия : С потерями

Бит/(Пиксели*Кадры) : 0.396

Размер потока : 1,32 Гбайт (91%)

Библиотека кодирования : XviD 1.2.1 (UTC 2008-12-04)

Аудио

Идентификатор : 1

Формат : AC-3

Формат/Информация : Audio Coding 3

Расширение режима : CM (complete main)

Параметр Endianness формата : Big

Идентификатор кодека : 2000

Продолжительность : 1 ч. 31 м.

Вид битрейта : Постоянный

Битрейт : 192 Кбит/сек

Каналы : 2 канала

Расположение каналов : Front: L R

Частота : 48,0 КГц

Частота кадров : 31,250 кадров/сек (1536 spf)

Метод сжатия : С потерями

Размер потока : 125 Мбайт (8%)

Выравнивание : Разделение по промежуткам

Продолжительность промежутка : 42 мс. (1,00 видеокадр)

Время предзагрузки промежутка : 500 мс.
pb.wtf



Скачать Приходи на меня посмотреть через торрент http://img10.lostpic.net/2016/06/28/d77a38c5b3314eca99744eb0f4126bbc.png Скачать, смотреть онлайн Приходи на меня посмотреть бесплантно в хорошем качестве Описание: В руки программного директора телевидения попадает дневник, в котором содержится запись о женщине, которую, якобы, насильно ... 5 10 1
Торрент: Зарегистрирован [2016-07-17 09:06] · скачан: 12 раз
Статус: √ проверено
Размер: 1.45 GB
Как cкачать? Как скачать Приходи на меня посмотреть через торрент | UTorrent

28-11-2019 20:33  

Отключить всю рекламу на сайте

    Дорогой пользователь! Огромная просьба, поблагодарите релизера, оцените раздачу и оставьте свои комментарий, если Вы скачали Приходи на меня посмотреть через торрент бесплатно!
    Комментировать посты могут только пользователи прошедшие не сложную регистрацию
    Показать сообщения:    

    Приходи на меня посмотреть через торрент
    Скачать бесплатно Приходи на меня посмотреть
    Приходи на меня посмотреть скачать торрент
    Приходи на меня посмотреть смотреть онлайн
    Cкачать фильм Приходи на меня посмотреть бесплатно
    Приходи на меня посмотреть скачать торрент в хорошем качестве
    Приходи на меня посмотреть смотреть онлайн бесплатно в хорошем качестве


    Вы не можете начинать темы
    Вы не можете отвечать на сообщения
    Вы не можете редактировать свои сообщения
    Вы не можете удалять свои сообщения
    Вы не можете голосовать в опросах
    Вы не можете прикреплять файлы к сообщениям
    Вы можете скачивать файлы