новый адрес
Ссылка на приватное зеркало всего за 1$. Внимание количество ограничено!!!

iTunes

1+1

iTunes

мы

WEB-DL

1

iTunes

Чернобыль

iTunes

Ральф против интернета

Лицензия

ПШазам

Лицензия

Оно 2

Лицензия

30
pack

Вам бонус

ВАЖНО

!!Акция!!

Alien_RageХит недели

RePack

Resident Evil 21

ИГРА 18+

pack

RePack

jed

!!Акция!!

Alien_Rage

RePack

fifa19

RePack

Assassins Creed: Odyssey

RePack

NEED FOR SPEED™ PAYBACK

3 сезон

9 сезон

Бесстыжие 9 сезон

Все сериалы

все сериалы на PB.wtf

RePack

FAR CRY 5
Ребята, катастрофически не хватает 1900р. для оплаты серверов за Октябрь (всвязи с блокировками трафик упал в 3 раза), 1-2р., выручайте.
  

Срок жизни / Term Life (2016) BDRip 1080p pb.wtf

Срок жизни через торрент pb.wtf

Размер: 9.82 GB | Добавлен: 3 года 4 мес. назад | Торрент скачан:5 раз
Скачать  

17-07-2016 09:08 Срок жизни Скачать торрент  

Информация о фильме

Название: Срок жизни

Оригинальное название: Term Life

Год выхода: 2016

Жанр: Драма, криминал

Режиссер: Питер Биллингсли

В ролях: Винс Вон, Хейли Стайнфелд, Джонатан Бэнкс, Джон Фавро, Тараджи П. Хенсон, Аннабет Гиш, Билл Пэкстон, Терренс Ховард, Мануэль Рульфо, Хорди Молья

Описание:

Фильм рассказывает о персонаже по имени Ник Бэрроу, который планирует кражи, а потом продаёт эти проекты тому, кто больше заплатит. Но наступает чёрный день - один из замыслов Ника с треском проваливается, и теперь его смерти жаждут все, начиная с главарей мафии и заканчивая оборотнями в погонах. Поняв, что от судьбы не убежишь, герой решает сделать напоследок что-то хорошее - он страхует жизнь на миллион долларов, чтобы после смерти обеспечить свою дочь. Не учитывает Ник только одного - страховка начнет действовать лишь через 21 день, в течение которых герою необходимо оставаться в живых. А это в его ситуации совсем не просто.



Страна: США

Студия: Palm-Star Entertainment, PenLife Media, Wild West Picture Show Productions

Продолжительность: 01:31:50

Перевод: Любительский многоголосый (закадровый) | Parovoz Production

Файл

Кодек: MPEG-4

Качество: BDRip 1080p

Видео: 1920x800, 13.3 Mbit/s, 23.976 fps

Звук:

Аудио #01: 48 kHz, AC3, 2.0, 384 Kbps | Любительский многоголосый (закадровый), Parovoz Production |

Аудио #02: 48 kHz, DTS, 5.1, 1510 kbps | Оригинал |

Субтитры: Русские, английские

General

Unique ID : 182882109384441081942015332408577833196 (0x8995D025B94BC900B79E28B38A6D38EC)

Complete name : F:VideoTerm.Life.2016.BDRip.1080p.ExKinoRay.mkv

Format : Matroska

Format version : Version 4 / Version 2

File size : 9.82 GiB

Duration : 1h 32mn

Overall bit rate : 15.2 Mbps

Movie name : Term.Life.2016.BDRip.1080p.ExKinoRay

Encoded date : UTC 2016-06-28 06:17:23

Writing application : mkvmerge v8.3.0 ('Over the Horizon') 64bit

Writing library : libebml v1.3.1 + libmatroska v1.4.2

Video

ID : 1

Format : AVC

Format/Info : Advanced Video Codec

Format profile : High@L4.1

Format settings, CABAC : Yes

Format settings, ReFrames : 5 frames

Codec ID : V_MPEG4/ISO/AVC

Duration : 1h 32mn

Bit rate : 13.3 Mbps

Width : 1 920 pixels

Height : 800 pixels

Display aspect ratio : 2.40:1

Frame rate mode : Constant

Frame rate : 23.976 (24000/1001) fps

Color space : YUV

Chroma subsampling : 4:2:0

Bit depth : 8 bits

Scan type : Progressive

Bits/(Pixel*Frame) : 0.360

Stream size : 8.59 GiB (87%)

Writing library : x264 core 142 r2431+42 c69a006 tMod [8-bit@all X86_64]

Encoding settings : cabac=1 / ref=5 / deblock=1:-3:-3 / analyse=0x3:0x133 / me=umh / subme=11 / psy=1 / fade_compensate=0.00 / psy_rd=0.90:0.00 / mixed_ref=1 / me_range=32 / chroma_me=1 / trellis=2 / 8x8dct=1 / cqm=0 / deadzone=21,11 / fast_pskip=0 / chroma_qp_offset=-2 / threads=60 / lookahead_threads=6 / sliced_threads=0 / nr=0 / decimate=0 / interlaced=0 / bluray_compat=0 / constrained_intra=0 / fgo=0 / bframes=8 / b_pyramid=2 / b_adapt=2 / b_bias=0 / direct=3 / weightb=1 / open_gop=0 / weightp=2 / keyint=250 / keyint_min=23 / scenecut=40 / intra_refresh=0 / rc_lookahead=60 / rc=crf / mbtree=0 / crf=18.9000 / qcomp=0.60 / qpmin=0:0:0 / qpmax=69:69:69 / qpstep=4 / vbv_maxrate=40000 / vbv_bufsize=30000 / crf_max=0.0 / nal_hrd=none / filler=0 / ip_ratio=1.40 / pb_ratio=1.30 / aq=1:0.90 / aq-sensitivity=10.00 / aq-factor=1.00:1.00:1.00 / aq2=0 / aq3=0

Language : English

Default : Yes

Forced : No

Audio #1

ID : 2

Format : AC-3

Format/Info : Audio Coding 3

Mode extension : CM (complete main)

Format settings, Endianness : Big

Codec ID : A_AC3

Duration : 1h 32mn

Bit rate mode : Constant

Bit rate : 384 Kbps

Channel(s) : 2 channels

Channel positions : Front: L R

Sampling rate : 48.0 KHz

Frame rate : 31.250 fps (1536 spf)

Compression mode : Lossy

Delay relative to video : 96ms

Stream size : 255 MiB (3%)

Title : MVO [Parovoz Production]

Language : Russian

Default : Yes

Forced : No

Audio #2

ID : 3

Format : DTS

Format/Info : Digital Theater Systems

Mode : 16

Format settings, Endianness : Big

Codec ID : A_DTS

Duration : 1h 32mn

Bit rate mode : Constant

Bit rate : 1 509 Kbps

Channel(s) : 6 channels

Channel positions : Front: L C R, Side: L R, LFE

Sampling rate : 48.0 KHz

Frame rate : 93.750 fps (512 spf)

Bit depth : 24 bits

Compression mode : Lossy

Stream size : 1 001 MiB (10%)

Title : Original

Language : English

Default : No

Forced : No

Text #1

ID : 4

Format : UTF-8

Codec ID : S_TEXT/UTF8

Codec ID/Info : UTF-8 Plain Text

Duration : 1h 31mn

Bit rate : 97 bps

Count of elements : 1282

Stream size : 65.7 KiB (0%)

Title : Full

Language : Russian

Default : No

Forced : No

Text #2

ID : 5

Format : UTF-8

Codec ID : S_TEXT/UTF8

Codec ID/Info : UTF-8 Plain Text

Duration : 1h 26mn

Bit rate : 60 bps

Count of elements : 907

Stream size : 38.7 KiB (0%)

Title : Full

Language : English

Default : No

Forced : No

Text #3

ID : 6

Format : UTF-8

Codec ID : S_TEXT/UTF8

Codec ID/Info : UTF-8 Plain Text

Duration : 1h 29mn

Bit rate : 68 bps

Count of elements : 1451

Stream size : 44.5 KiB (0%)

Title : SDH

Language : English

Default : No

Forced : No

Menu

00:00:00.000 : en:00:00:00.000

00:07:30.241 : en:00:07:30.241

00:13:04.951 : en:00:13:04.951

00:19:25.623 : en:00:19:25.623

00:24:38.811 : en:00:24:38.811

00:28:01.680 : en:00:28:01.680

00:32:49.467 : en:00:32:49.467

00:37:35.044 : en:00:37:35.044

00:42:13.197 : en:00:42:13.197

00:46:56.981 : en:00:46:56.981

00:50:42.456 : en:00:50:42.456

00:55:20.067 : en:00:55:20.067

00:58:37.305 : en:00:58:37.305

01:03:44.112 : en:01:03:44.112

01:07:57.949 : en:01:07:57.949

01:14:37.848 : en:01:14:37.848

01:19:45.781 : en:01:19:45.781

01:21:29.635 : en:01:21:29.635

01:25:30.083 : en:01:25:30.083

01:27:32.205 : en:01:27:32.205
pb.wtf



Скачать Срок жизни через торрент http://s017.radikal.ru/i426/1606/58/b1eec1c8adab.jpg Скачать фильм Срок жизни через торрент бесплантно в хорошем качестве Описание: Фильм рассказывает о персонаже по имени Ник Бэрроу, который планирует кражи, а потом продаёт эти проекты тому, кто больше ... 5 10 1
Торрент: Зарегистрирован [2016-07-17 09:08] · скачан: 5 раз
Статус: T временная
Размер: 9.82 GB
Как cкачать? Как скачать Срок жизни через торрент | qTorrent

28-11-2019 20:33  

Отключить всю рекламу на сайте

    Дорогой пользователь! Огромная просьба, поблагодарите релизера, оцените раздачу и оставьте свои комментарий, если Вы скачали Срок жизни через торрент бесплатно! Внесите свою лепту в развитие PiratBit!
    Комментировать посты могут только пользователи прошедшие не сложную регистрацию
    Показать сообщения:    

    Срок жизни через торрент
    Скачать бесплатно Срок жизни
    Срок жизни скачать торрент
    Срок жизни смотреть онлайн
    Cкачать фильм Срок жизни бесплатно
    Срок жизни скачать торрент в хорошем качестве
    Срок жизни смотреть онлайн бесплатно в хорошем качестве


    Вы не можете начинать темы
    Вы не можете отвечать на сообщения
    Вы не можете редактировать свои сообщения
    Вы не можете удалять свои сообщения
    Вы не можете голосовать в опросах
    Вы не можете прикреплять файлы к сообщениям
    Вы можете скачивать файлы