Ссылка на приватное зеркало нашего сайта всего за 1$. Внимание количество ограничено!!!

2 сезон

iTunes

1 сезон

1

2 сезон

2 сезон

iTunes

1 сезон

RePack

30

Новинка

ВАЖНО

ИГРА 18+

pack

RePack

MK11
pack

Забери бонус

RePack

jed

!!Акция!!

Alien_Rage

RePack

fifa19

RePack

Assassins Creed: Odyssey

RePack

NEED FOR SPEED™ PAYBACK

4 сезон

9 сезон

Бесстыжие 9 сезон

Все сериалы

все сериалы на PB.wtf

RePack

FAR CRY 5
  

Игроки / Футболисты / Ballers / Сезон: 2 / Серии 1-10 из 10 (Питер Берг / Peter Berg) [2016, США, драма, комедия, HDTVRip, MVO] [Amedia] pb.wtf

Игроки через торрент pb.wtf

Размер: 3.04 GB | Добавлен: 4 года 2 мес. назад | Торрент скачан:354 раза
Скачать  

18-07-2016 08:35 Игроки Скачать торрент  


Игроки / Футболисты / Ballers



  • Год выпуска: 2016
  • Страна: США
  • Жанр: драма, комедия
  • Продолжительность: 00:30:01 (Серия)
  • Перевод: Профессиональный многоголосый закадровый [Amedia]
  • Субтитры: Русские, английские
  • Режиссер: Питер Берг / Peter Berg
  • В ролях:

    Дуэйн Джонсон (Spencer Strassmore), Jazmyn Simon (Julie Greane), Донован Картер (Vernon), Роб Кордри (Joe), Трой Гэрити (Jason), Омар Бенсон Миллер (Charles Greane), Джон Дэвид Вашингтон (Ricky Jerret), London Brown (Reggie), Анабель Акоста (Annabella), Дьюли Хилл (Larry), Ариэль Кеббел (Tracy Legette), Хаким Коллендер (Marcus)

  • Описание:
    Комедийный сериал. Главную роль в нем исполнит Дуэйн Джонсон. Актер также выступит в роли продюсера сериала. Дуэйну досталась роль бывшего спортсмена Спенсера Страсмора. Его спортивная карьера уже закончилась, но мужчина не собирается уходить в отставку. Он пробует найти своё место в жизни. По роду деятельности Спенсер будет сталкиваться с футболистами, их семьями и теми, кто так или иначе имеет отношение к спорту. Забавная комедия о спорте, спортсменах и их родне. На пути главного героя встретиться роковая красотка репортерша, роль которой исполнит Тейлор Коул
  • Рейтинг:



  • Качество: HDTVRip
  • Формат: :AVI
  • Видео кодек: XviD
  • Аудио кодек: MP3
  • Видео: 1295 Кбит/сек, 720*400 (16:9), в 25,000 кадров/сек, MPEG-4 Visual (XviD)
  • Аудио 1: Русский 128 Кбит/сек, 48,0 КГц, 2 канала, MPEG Audio (MP3)
  • Аудио 1: Английский 128 Кбит/сек, 48,0 КГц, 2 канала, MPEG Audio (MP3)

    Код:

    Внимание! Раздача ведётся путём добавления новых серий; при каждом добавлении создаётся новый торрент. Чтобы начать докачку новой серии, пользователям необходимо сделать следующее:
    (1) остановить скачивание,
    (2) удалить старый торрент у себя из клиента (старые серии удалять не надо),
    (3) скачать новый торрент и запустить его у себя в клиенте вместо старого, при этом указать клиенту путь в старую папку куда и должно происходить скачивание новых серий.
    Ваш клиент при этом должен произвести хеширование (проверку) старой папки (если не производит сам - помогите ему сделать это), и будет докачивать только те серии которых у вас ещё нет. Старые серии при этом не удаляются, а продолжают раздаваться!
    Eсли вы уже удалили старые серии, то предотвратить повторную закачку старых серий можно, отжав галочку в соответсвующих местах при запуске нового торрента. По возможности, желательно не удалять старые серии как можно дольше чтобы релизёр не столько продолжал раздавать старые серии, а смог сконцентрироваться на новых.


    Код:

    Общее
    Полное имя                               : H:\Ballers (Season 02) Amedia\Ballers.[S02E03].XviD.Amedia.[qqss44].avi
    Формат                                   : AVI
    Формат/Информация                        : Audio Video Interleave
    Размер файла                             : 301 Мбайт
    Продолжительность                        : 26 м.
    Общий поток                              : 1566 Кбит/сек
    Программа кодирования                    : VirtualDubMod 1.5.10.3 | www.virtualdub-fr.org || (build 2550/release)
    Библиотека кодирования                   : VirtualDubMod build 2550/release

    Видео
    Идентификатор                            : 0
    Формат                                   : MPEG-4 Visual
    Профиль формата                          : Advanced Simple@L5
    Параметр BVOP формата                    : 2
    Параметр QPel формата                    : Нет
    Параметр GMC формата                     : Без точки перехода
    Параметр матрицы формата                 : Выборочная
    Идентификатор кодека                     : XVID
    Идентификатор кодека/Подсказка           : XviD
    Продолжительность                        : 26 м.
    Битрейт                                  : 1295 Кбит/сек
    Ширина                                   : 720 пикселей
    Высота                                   : 400 пикселей
    Соотношение сторон                       : 16:9
    Частота кадров                           : 25,000 кадров/сек
    Цветовое пространство                    : YUV
    Субдискретизация насыщенности            : 4:2:0
    Битовая глубина                          : 8 бит
    Тип развёртки                            : Прогрессивная
    Метод сжатия                             : С потерями
    Бит/(Пиксели*Кадры)                      : 0.180
    Размер потока                            : 249 Мбайт (83%)
    Библиотека кодирования                   : XviD 73

    Аудио #1
    Идентификатор                            : 1
    Формат                                   : MPEG Audio
    Версия формата                           : Version 1
    Профиль формата                          : Layer 3
    Режим                                    : Joint stereo
    Идентификатор кодека                     : 55
    Идентификатор кодека/Подсказка           : MP3
    Продолжительность                        : 26 м.
    Вид битрейта                             : Постоянный
    Битрейт                                  : 128 Кбит/сек
    Каналы                                   : 2 канала
    Частота                                  : 48,0 КГц
    Метод сжатия                             : С потерями
    Размер потока                            : 24,6 Мбайт (8%)
    Выравнивание                             : Соединение по промежуткам
    Продолжительность промежутка             : 40  мс. (1,00 видеокадр)
    Время предзагрузки промежутка            : 504  мс.

    Аудио #2
    Идентификатор                            : 2
    Формат                                   : MPEG Audio
    Версия формата                           : Version 1
    Профиль формата                          : Layer 3
    Режим                                    : Joint stereo
    Идентификатор кодека                     : 55
    Идентификатор кодека/Подсказка           : MP3
    Продолжительность                        : 26 м.
    Вид битрейта                             : Постоянный
    Битрейт                                  : 128 Кбит/сек
    Каналы                                   : 2 канала
    Частота                                  : 48,0 КГц
    Метод сжатия                             : С потерями
    Размер потока                            : 24,6 Мбайт (8%)
    Выравнивание                             : Соединение по промежуткам
    Продолжительность промежутка             : 40  мс. (1,00 видеокадр)
    Время предзагрузки промежутка            : 504  мс.




    Скриншоты:
    скриншот   скриншот   скриншот   скриншот   скриншот   скриншот   скриншот  
    скриншот  

    Раздача ведётся путём добавления новых серий. Добавлена 10 серия (26.09.2016).Просьба перекачать торрент файл.

    pb.wtf



  • Скачать Игроки через торрент http://pic1.kartinco.top/images/10/dnrpr.jpg Скачать фильм Игроки через торрент бесплантно в хорошем качестве Описание: Комедийный сериал. Главную роль в нем исполнит Дуэйн Джонсон. Актер также выступит в роли продюсера сериала. Дуэйну досталась ... 9.8 10 25
    Info! Золотая раздача, скачанное не засчитывается.
    Торрент: Зарегистрирован [2016-09-26 12:02] · скачан: 354 раз
    Статус: √ проверено
    Размер: 3.04 GB
    Как cкачать? Как скачать Игроки через торрент | qTorrent



    Последний раз редактировалось: GEKADOL (2016-09-26 12:02), всего редактировалось 5 раз(а)

    28-11-2019 20:33  

    Отключить всю рекламу на сайте

    22-08-2016 15:02 Игроки Скачать торрент  

    сериал зачотный!pb.wtf



    23-08-2016 14:13 Игроки Скачать торрент  

    1й сезон отличный. Посмотрим 2йpb.wtf



    24-09-2016 18:42 Игроки Скачать торрент  

    и 1 и 2 супер.напоминает Блудливую калифорнию с Духовнымpb.wtf



    25-09-2016 11:57 Игроки Скачать торрент  

    Начало было не очень, но сейчас интересно.pb.wtf



    26-09-2016 12:03 Игроки Скачать торрент  

    Вот и всё) pb.wtf



    26-09-2016 16:26 Игроки Скачать торрент  

    3 сезон будет ?pb.wtf



    13-09-2018 14:32 Игроки Скачать торрент  

    Спсpb.wtf



      Дорогой пользователь! Огромная просьба, поблагодарите релизера, оцените раздачу и оставьте свои комментарий, если Вы скачали Игроки через торрент бесплатно! Внесите свою лепту в развитие PiratBit!
      Комментировать посты могут только пользователи прошедшие не сложную регистрацию
      Показать сообщения:    

      Игроки через торрент
      Скачать бесплатно Игроки
      Игроки скачать торрент
      Игроки смотреть онлайн
      Cкачать фильм Игроки бесплатно
      Игроки скачать торрент в хорошем качестве
      Игроки смотреть онлайн бесплатно в хорошем качестве


      Вы не можете начинать темы
      Вы не можете отвечать на сообщения
      Вы не можете редактировать свои сообщения
      Вы не можете удалять свои сообщения
      Вы не можете голосовать в опросах
      Вы не можете прикреплять файлы к сообщениям
      Вы можете скачивать файлы