Всегда рабочее зеркало без VPN и Proxy просто перед .vidak.icu напиши любое слово или цифру, Пример http://tcoy.vidak.icu

MVO

2 сезон

2 сезон

1

1 сезон

iTunes

2 сезон

13

1 сезон

Deluxe

pack

Рекомендуем

Пиратка

30

ВАЖНО

RePack

MK11

RePack

jed

RePack

fifa19

RePack

RDR2

RePack

NEED FOR SPEED™ PAYBACK

Кинопоиск HD

6 сезон

 Острые козырьки 6 сезон

Все сериалы

все сериалы на PB.wtf

RePack

FAR CRY 5

Anonymous, нам критически не хватает 5601 руб. на оплату серверов и переферии за Апрель, помоги нам пожалуйста, вся надежда только на тебя. В благодарность мы отключим тебе всю рекламу на сайте!

×
  
Magnet ссылка

Лайкни меня / Johahaejyo (2016) WEB-DLRip pb.wtf

Лайкни меня через торрент pb.wtf

Размер: 1.41 GB | Добавлен: 5 лет 9 мес. назад | Торрент скачан:10 раз
Смотреть онлайн Лайкни меня | Скачать    Ребята, помогите собрать деньги на оплату серверов!!!

19-07-2016 07:57 Лайкни меня Скачать торрент  

Лайкни меня / Like for Likes / Please Like Me / Johahaejyo

Страна: Южная Корея

Производство: Liyang Film

Год выпуска: 2016

Жанр: мелодрама, комедия

Продолжительность: 02:02:59

Режиссер: Хён-чжин Пак

В ролях: Ю А-ин, Чхве Джи-у, Кан Ха-ныль, Ким Джу-хёк, Ли Ми-ён, Ли Джон-ын

Описание: Романтический фильм, состоящий из трёх разных историй любви. Три пары и разные обстоятельства...



Перевод: Любительский (двухголосый, закадровый) | Olyushka & Ruben Mendez

Субтитры: нет
Качество: WEB-DLRip

Формат: АVI

Видео кодек: XviD

Аудио кодек: АС3

Видео: 720x304 (2.35:1), 23.976 fps, XviD ~1 440 kbps avg, 0.274 bit/pixel

Аудио: 48.0 kHz, AC3 Dolby Digital, 2/0 (L,R) ch, ~192 kbps

Дата премьеры (мир): 17 февраля 2016

General

Полное имя : Счастливый фейсбук.avi

Формат : AVI

Формат/Информация : Audio Video Interleave

Размер файла : 1,41 Гбайт

Продолжительность : 2 ч. 2 м.

Общий поток : 1641 Кбит/сек

Программа кодирования : VirtualDubMod 1.5.10.3 | (build 2550/release)

Библиотека кодирования : VirtualDubMod build 2550/release

Видео

Идентификатор : 0

Формат : MPEG-4 Visual

Профиль формата : Advanced Simple@L5

Параметр BVOP формата : 1

Параметр QPel формата : Нет

Параметр GMC формата : Без точки перехода

Параметр матрицы формата : Default (H.263)

Идентификатор кодека : XVID

Идентификатор кодека/Подсказка : XviD

Продолжительность : 2 ч. 2 м.

Битрейт : 1440 Кбит/сек

Ширина : 720 пикселей

Высота : 304 пикселя

Соотношение сторон : 2,35:1

Частота кадров : 23,976 (23976/1000) кадра/сек

Цветовое пространство : YUV

Субдискретизация насыщенности : 4:2:0

Битовая глубина : 8 бит

Тип развёртки : Прогрессивная

Метод сжатия : С потерями

Бит/(Пиксели*Кадры) : 0.274

Размер потока : 1,24 Гбайт (88%)

Библиотека кодирования : XviD 1.2.1 (UTC 2008-12-04)

Аудио

Идентификатор : 1

Формат : AC-3

Формат/Информация : Audio Coding 3

Расширение режима : CM (complete main)

Параметр Endianness формата : Big

Идентификатор кодека : 2000

Продолжительность : 2 ч. 2 м.

Вид битрейта : Постоянный

Битрейт : 192 Кбит/сек

Каналы : 2 канала

Расположение каналов : Front: L R

Частота : 48,0 КГц

Частота кадров : 31,250 кадров/сек (1536 spf)

Метод сжатия : С потерями

Размер потока : 169 Мбайт (12%)

Выравнивание : Разделение по промежуткам

Продолжительность промежутка : 42 мс. (1,00 видеокадр)

Время предзагрузки промежутка : 500 мс.
pb.wtf



Скачать Лайкни меня через торрент http://img10.lostpic.net/2016/07/19/858d911fae82f0274fd22385d49e37dd.png Скачать, смотреть онлайн Лайкни меня бесплантно в хорошем качестве Описание: Романтический фильм, состоящий из трёх разных историй любви. Три пары и разные обстоятельства... Перевод: ... 10 10 1
Торрент: Зарегистрирован [2016-07-19 07:57] · скачан: 10 раз
Статус: √ проверено
Размер: 1.41 GB
Как cкачать? Как скачать Лайкни меня через торрент | UTorrent

28-11-2019 20:33  

Отключить всю рекламу на сайте

    Дорогой пользователь! Огромная просьба, поблагодарите релизера, оцените раздачу и оставьте свои комментарий, если Вы скачали Лайкни меня через торрент бесплатно!
    Комментировать посты могут только пользователи прошедшие не сложную регистрацию
    Показать сообщения:    

    Лайкни меня через торрент
    Скачать бесплатно Лайкни меня
    Лайкни меня скачать торрент
    Лайкни меня смотреть онлайн
    Cкачать фильм Лайкни меня бесплатно
    Лайкни меня скачать торрент в хорошем качестве
    Лайкни меня смотреть онлайн бесплатно в хорошем качестве


    Вы не можете начинать темы
    Вы не можете отвечать на сообщения
    Вы не можете редактировать свои сообщения
    Вы не можете удалять свои сообщения
    Вы не можете голосовать в опросах
    Вы не можете прикреплять файлы к сообщениям
    Вы можете скачивать файлы