Ссылка на приватное зеркало нашего сайта всего за 1$. Внимание количество ограничено!!!

2 сезон

iTunes

1 сезон

1

iTunes

iTunes

iTunes

1 сезон

RePack

30

ИГРА 18+

pack

ВАЖНО

!!Акция!!

Alien_RageХит недели

RePack

MK11
pack

Забери бонус

RePack

jed

!!Акция!!

Alien_Rage

RePack

fifa19

RePack

Assassins Creed: Odyssey

RePack

NEED FOR SPEED™ PAYBACK

4 сезон

9 сезон

Бесстыжие 9 сезон

Все сериалы

все сериалы на PB.wtf

RePack

FAR CRY 5
  

Кэрри / Carrie (Брайан Де Пальма) [1976, ужасы, фэнтези, драма, BDRip 1080p by msltel] 3 x MVO, 3 x AVO, VO (профессиональный) pb.wtf

Кэрри через торрент pb.wtf

Размер: 14.65 GB | Добавлен: 4 года 3 мес. назад | Торрент скачан:13 раз
Скачать  

19-07-2016 12:44 Кэрри Скачать торрент  

Название: Кэрри
Оригинальное название: Carrie
Год выпуска: 1976
Страна: США
Жанр: ужасы, фэнтези, драма
Продолжительность: 01:38:11
Перевод: Профессиональный многоголосый, профессиональный одноголосый, авторский

Режиссёр: Брайан Де Пальма

В ролях: Сисси Спейсек, Пайпер Лори, Эми Ирвинг, Уильям Кэтт, Бетти Бакли, Нэнси Аллен, Джон Траволта, П.Дж. Соулз, Присцилла Пойнтер, Сидни Лэссик, Стефан Гираш, Майкл Толбот, Даг Кокс, Гарри Голд, Ноэль Норт, Синди Дэйли, Деирдр Бертронг, Энсон Даунс, Рори Стивенс, Эди МакКлёрг, Камерон Де Пальма, Майкл Тауэрс, Глен Вэнс

Описание: Все чувства слились для Кэрри Уайт в один большой ком страданий. Он настигает её везде: и в школе, где насмешки и унижения градом сыплются на "серую мышку" от одноклассников-садистов, и дома, где деспотизм и строгость набожной матери давят, словно тиски. Но однажды выясняется, что Кэрри наделена сверхъестественными способностями. Вот она долгожданная и уникальная возможность отомстить за все обиды, воздать по заслугам всем и каждому, причём самым изощренным способом... Фильм по одноимённому роману Стивена Кинга.



Качество: BDRip 1080p Сравнение с исходником
Формат: MKV
Видео: MPEG-4 AVC, 16.8 Mбит/с, 1920x1040, 23,976 кадра/с
Аудио 1: русский, DTS, 768 kbps, 1 ch, 48 kHz [профессиональный многоголосый, НТВ+]
Аудио 2: русский, AC3, 640 kbps, 6 ch, 48 kHz [авторский, Сергей Визгунов]

Внешние файлы
Аудио: русский, AC3, 192 kbps, 2 ch, 48 kHz [профессиональный многоголосый]
Аудио: русский, AC3, 192 kbps, 2 ch, 48 kHz [профессиональный многоголосый, Варус Видео]
Аудио: русский, AC3, 192 kbps, 2 ch, 48 kHz [авторский, Алексей Михалёв]
Аудио: русский, AC3, 384 kbps, 6 ch, 48 kHz [авторский, Юрий Живов]
Аудио: русский, AC3, 640 kbps, 6 ch, 48 kHz [одноголосный закадровый (D.F.V.)]
Аудио: английский, DTS, 1509 kbps, 6 ch, 48 kHz [оригинал]
Субтитры: русские (Минасов)
Субтитры: английские (для слабослышащих)
Общее
Полное имя : D:\Video\Кэрри.1976.BDRip.1080p\Кэрри.1976.AVO.rus.А.Михалёв.ac3
Формат : AC-3
Формат/Информация : Audio Coding 3
Размер файла : 135 Мбайт
Продолжительность : 1 ч. 38 м.
Режим общего битрейта : Постоянный
Общий поток : 192 Кбит/сек

Аудио
Формат : AC-3
Формат/Информация : Audio Coding 3
Расширение режима : CM (complete main)
Параметр Endianness формата : Big
Продолжительность : 1 ч. 38 м.
Вид битрейта : Постоянный
Битрейт : 192 Кбит/сек
Каналы : 2 канала
Расположение каналов : Front: L R
Частота : 48,0 КГц
Частота кадров : 31,250 кадров/сек (1536 spf)
Метод сжатия : С потерями
Размер потока : 135 Мбайт (100%)

Общее
Полное имя : D:\Video\Кэрри.1976.BDRip.1080p\Кэрри.1976.AVO.rus.Юрий Живов.ac3
Формат : AC-3
Формат/Информация : Audio Coding 3
Размер файла : 270 Мбайт
Продолжительность : 1 ч. 38 м.
Режим общего битрейта : Постоянный
Общий поток : 384 Кбит/сек

Аудио
Формат : AC-3
Формат/Информация : Audio Coding 3
Расширение режима : CM (complete main)
Параметр Endianness формата : Big
Продолжительность : 1 ч. 38 м.
Вид битрейта : Постоянный
Битрейт : 384 Кбит/сек
Каналы : 6 каналов
Расположение каналов : Front: L C R, Side: L R, LFE
Частота : 48,0 КГц
Частота кадров : 31,250 кадров/сек (1536 spf)
Метод сжатия : С потерями
Размер потока : 270 Мбайт (100%)

Общее
Уникальный идентификатор : 217669400934770698663516182137361682522 (0xA3C19A0A90AA3387B9D78E5D7F14505A)
Полное имя : D:\Video\Кэрри.1976.BDRip.1080p\Кэрри.1976.BDRip.1080p.mkv
Формат : Matroska
Версия формата : Version 4 / Version 2
Размер файла : 12,5 Гбайт
Продолжительность : 1 ч. 38 м.
Общий поток : 18,2 Мбит/сек
Дата кодирования : UTC 2016-07-19 07:38:58
Программа кодирования : mkvmerge v8.2.0 ('World of Adventure') 64bit
Библиотека кодирования : libebml v1.3.1 + libmatroska v1.4.2

Видео
Идентификатор : 1
Формат : AVC
Формат/Информация : Advanced Video Codec
Профиль формата : High@L4.1
Параметр CABAC формата : Да
Параметр ReFrames формата : 4 кадра
Идентификатор кодека : V_MPEG4/ISO/AVC
Продолжительность : 1 ч. 38 м.
Битрейт : 16,8 Мбит/сек
Ширина : 1920 пикселей
Высота : 1040 пикселей
Соотношение сторон : 1,85:1
Режим частоты кадров : Постоянный
Частота кадров : 23,976 (24000/1001) кадра/сек
Цветовое пространство : YUV
Субдискретизация насыщенности : 4:2:0
Битовая глубина : 8 бит
Тип развёртки : Прогрессивная
Бит/(Пиксели*Кадры) : 0.352
Размер потока : 11,5 Гбайт (92%)
Библиотека кодирования : x264 core 146 r2538 121396c
Настройки программы : cabac=1 / ref=4 / deblock=1:-3:-3 / analyse=0x3:0x113 / me=umh / subme=10 / psy=1 / psy_rd=1.00:0.15 / mixed_ref=1 / me_range=32 / chroma_me=1 / trellis=2 / 8x8dct=1 / cqm=0 / deadzone=21,11 / fast_pskip=1 / chroma_qp_offset=-3 / threads=6 / lookahead_threads=1 / sliced_threads=0 / nr=0 / decimate=1 / interlaced=0 / bluray_compat=0 / constrained_intra=0 / bframes=9 / b_pyramid=2 / b_adapt=2 / b_bias=0 / direct=1 / weightb=1 / open_gop=0 / weightp=2 / keyint=230 / keyint_min=23 / scenecut=40 / intra_refresh=0 / rc_lookahead=40 / rc=crf / mbtree=0 / crf=19.3 / qcomp=0.60 / qpmin=0 / qpmax=69 / qpstep=4 / vbv_maxrate=40000 / vbv_bufsize=50000 / crf_max=0.0 / nal_hrd=none / filler=0 / ip_ratio=1.40 / pb_ratio=1.30 / aq=1:1.00
Язык : English
Default : Да
Forced : Нет

Аудио #1
Идентификатор : 2
Формат : DTS
Формат/Информация : Digital Theater Systems
Режим : 16
Параметр Endianness формата : Big
Идентификатор кодека : A_DTS
Продолжительность : 1 ч. 38 м.
Вид битрейта : Постоянный
Битрейт : 768 Кбит/сек
Каналы : 1 канал
Расположение каналов : Front: C
Частота : 48,0 КГц
Частота кадров : 93,750 кадра/сек (512 spf)
Битовая глубина : 24 бит
Метод сжатия : С потерями
Размер потока : 539 Мбайт (4%)
Заголовок : MVO (HTB+)
Язык : Russian
Default : Да
Forced : Нет

Аудио #2
Идентификатор : 3
Формат : AC-3
Формат/Информация : Audio Coding 3
Расширение режима : CM (complete main)
Параметр Endianness формата : Big
Идентификатор кодека : A_AC3
Продолжительность : 1 ч. 38 м.
Вид битрейта : Постоянный
Битрейт : 640 Кбит/сек
Каналы : 6 каналов
Расположение каналов : Front: L C R, Side: L R, LFE
Частота : 48,0 КГц
Частота кадров : 31,250 кадров/сек (1536 spf)
Метод сжатия : С потерями
Размер потока : 449 Мбайт (4%)
Заголовок : AVO (Сергей Визгунов)
Язык : Russian
Default : Нет
Forced : Нет

Общее
Полное имя : D:\Video\Кэрри.1976.BDRip.1080p\Кэрри.1976.eng.PSDH.srt
Формат : SubRip
Размер файла : 71,3 Кбайт

Текст
Формат : SubRip
Метод сжатия : Без потерь

Общее
Полное имя : D:\Video\Кэрри.1976.BDRip.1080p\Кэрри.1976.MVO,rus.ac3
Формат : AC-3
Формат/Информация : Audio Coding 3
Размер файла : 135 Мбайт
Продолжительность : 1 ч. 38 м.
Режим общего битрейта : Постоянный
Общий поток : 192 Кбит/сек

Аудио
Формат : AC-3
Формат/Информация : Audio Coding 3
Расширение режима : CM (complete main)
Параметр Endianness формата : Big
Продолжительность : 1 ч. 38 м.
Вид битрейта : Постоянный
Битрейт : 192 Кбит/сек
Каналы : 2 канала
Расположение каналов : Front: L R
Частота : 48,0 КГц
Частота кадров : 31,250 кадров/сек (1536 spf)
Метод сжатия : С потерями
Размер потока : 135 Мбайт (100%)

Общее
Полное имя : D:\Video\Кэрри.1976.BDRip.1080p\Кэрри.1976.MVO.rus.Варус Видео.ac3
Формат : AC-3
Формат/Информация : Audio Coding 3
Размер файла : 135 Мбайт
Продолжительность : 1 ч. 38 м.
Режим общего битрейта : Постоянный
Общий поток : 192 Кбит/сек

Аудио
Формат : AC-3
Формат/Информация : Audio Coding 3
Расширение режима : CM (complete main)
Параметр Endianness формата : Big
Продолжительность : 1 ч. 38 м.
Вид битрейта : Постоянный
Битрейт : 192 Кбит/сек
Каналы : 2 канала
Расположение каналов : Front: L R
Частота : 48,0 КГц
Частота кадров : 31,250 кадров/сек (1536 spf)
Метод сжатия : С потерями
Размер потока : 135 Мбайт (100%)

Общее
Полное имя : D:\Video\Кэрри.1976.BDRip.1080p\Кэрри.1976.original.eng.dts
Формат : DTS
Формат/Информация : Digital Theater Systems
Размер файла : 1,03 Гбайт
Продолжительность : 1 ч. 38 м.
Режим общего битрейта : Постоянный
Общий поток : 1509 Кбит/сек

Аудио
Формат : DTS
Формат/Информация : Digital Theater Systems
Режим : 16
Параметр Endianness формата : Big
Продолжительность : 1 ч. 38 м.
Вид битрейта : Постоянный
Битрейт : 1509 Кбит/сек
Каналы : 6 каналов
Расположение каналов : Front: L C R, Side: L R, LFE
Частота : 48,0 КГц
Частота кадров : 93,750 кадра/сек (512 spf)
Битовая глубина : 24 бит
Метод сжатия : С потерями
Размер потока : 1,03 Гбайт (100%)

Общее
Полное имя : D:\Video\Кэрри.1976.BDRip.1080p\Кэрри.1976.rus.Минасов.srt
Формат : SubRip
Размер файла : 77,1 Кбайт

Текст
Формат : SubRip
Метод сжатия : Без потерь

Общее
Полное имя : D:\Video\Кэрри.1976.BDRip.1080p\Кэрри.1976.rus.одноголосный закадровый (D.F.V.).ac3
Формат : AC-3
Формат/Информация : Audio Coding 3
Размер файла : 449 Мбайт
Продолжительность : 1 ч. 38 м.
Режим общего битрейта : Постоянный
Общий поток : 640 Кбит/сек

Аудио
Формат : AC-3
Формат/Информация : Audio Coding 3
Расширение режима : CM (complete main)
Параметр Endianness формата : Big
Продолжительность : 1 ч. 38 м.
Вид битрейта : Постоянный
Битрейт : 640 Кбит/сек
Каналы : 6 каналов
Расположение каналов : Front: L C R, Side: L R, LFE
Частота : 48,0 КГц
Частота кадров : 31,250 кадров/сек (1536 spf)
Метод сжатия : С потерями
Размер потока : 449 Мбайт (100%)
pb.wtf



Скачать Кэрри через торрент http://s019.radikal.ru/i632/1607/6c/553b95efb80b.jpg Скачать фильм Кэрри через торрент бесплантно в хорошем качестве Описание: Все чувства слились для Кэрри Уайт в один большой ком страданий. Он настигает её везде: и в школе, где насмешки и унижения градом ... 9 10 3
Info! Золотая раздача, скачанное не засчитывается.
Торрент: Зарегистрирован [2016-07-19 12:44] · скачан: 13 раз
Статус: √ проверено
Размер: 14.65 GB
Как cкачать? Как скачать Кэрри через торрент | qTorrent

% Раздел Тема Автор DL S | L
Фильмы 2016 [DVDrip, WEB-DLRip, HDrip] (DUB, MVO) [ 1.46 GB ] Кэрри в большом городе / Кэрри Пилби / Carrie Pilby [2016 WEB-DLRip] MVO bober100 Скачать
2 | 0
Фильмы (WEB-DL 720p, 1080p) [ 3.84 GB ] Кэрри в большом городе / Кэрри Пилби / Carrie Pilby [2016 WEB-DL 1080p] MVO bober100 Скачать
1 | 0
Фильмы до 2000 г. [ 2.18 GB ] Кэрри 2: Ярость / The Rage: Carrie 2 [1999 BDRip] MVO DVO Леонид Ильич Скачать
1 | 0
Зарубежные сериалы [ 14.04 GB ] Дневники Кэрри / The Carrie Diaries / Сезон: 1-2 / Серии: 1-26 [2013-2014 Мело WEB-DLRip] [DVO] killermax2013 Скачать
1 | 0
Фильмы [HD 720p, 1080p] (Хороший звук DUB, MVO) [ 6.3 GB ] Кэрри / Carrie [1976 BDRip 720p by msltel] 3 x MVO 3 x AVO VO msltel Скачать
1 | 0
Классика зарубежного кино [ 1.46 GB ] Кэрри / Carrie [1976 HDRip] [MVO] killermax2013 Скачать
1 | 0
Фильмы [HD 720p, 1080p] (Хороший звук DUB, MVO) [ 3.69 GB ] Кэрри / Carrie [ BDRip ] Flint3 Скачать
1 | 0

28-11-2019 20:33  

Отключить всю рекламу на сайте

    Дорогой пользователь! Огромная просьба, поблагодарите релизера, оцените раздачу и оставьте свои комментарий, если Вы скачали Кэрри через торрент бесплатно! Внесите свою лепту в развитие PiratBit!
    Комментировать посты могут только пользователи прошедшие не сложную регистрацию
    Показать сообщения:    

    Кэрри через торрент
    Скачать бесплатно Кэрри
    Кэрри скачать торрент
    Кэрри смотреть онлайн
    Cкачать фильм Кэрри бесплатно
    Кэрри скачать торрент в хорошем качестве
    Кэрри смотреть онлайн бесплатно в хорошем качестве


    Вы не можете начинать темы
    Вы не можете отвечать на сообщения
    Вы не можете редактировать свои сообщения
    Вы не можете удалять свои сообщения
    Вы не можете голосовать в опросах
    Вы не можете прикреплять файлы к сообщениям
    Вы можете скачивать файлы