>

7.4

iTunes

7.4

2 сезон

9.4

1 сезон

1

7.4

2 сезон

7.2

iTunes

6.0

MVO

13

6.1

iTunes

8.3

Пиратка

30

ULTIMATE

pack

9.9

Лицензия

ВАЖНО

ИГРА 18+

pack

7.3

RePack

MK11

7.7

RePack

jed

7.8

RePack

fifa19

8.5

RePack

RDR2

RePack

NEED FOR SPEED™ PAYBACK

1 сезон

9 сезон

Бесстыжие 9 сезон

Все сериалы

все сериалы на PB.wtf

RePack

FAR CRY 5

Anonymous, добрый вечер, мы катастрофически не успеваем собрать деньги на оплату серверов, помогите нам пожалуйста 5,10,15р., для нас важна любая помощь . В качестве благодарности мы отключим Вам всю рекламу на сайте (укажите свой ник в строку Ваше имя)!

×
  
Magnet ссылка

Достань меня, если сможешь / Reach Me (Джон Херцфелд / John Herzfeld) [2014, драма, триллер, комедия, BDRip 720p от potroks] AVO pb.wtf

Достань меня, если сможешь через торрент pb.wtf

Размер: 5 GB | Добавлен: 5 лет 5 мес. назад | Торрент скачан:13 раз
Смотреть онлайн Достань меня, если сможешь | Скачать    Ребята, помогите собрать деньги на оплату серверов!!!

20-07-2016 10:11 Достань меня, если сможешь Скачать торрент  

Достань меня, если сможешь / Reach Me
«There's no stopping someone who will stop at nothing!»
Год выпуска: 2014
Страна: США / Seraphim Films Inc., Windy Hill Pictures
Жанр: драма, триллер, комедия
Продолжительность: 01:28:33
Перевод: Авторский (одноголосый)
Субтитры: русские, английские (Full), английские (SDH)
Навигация по главам: есть
Режиссер: Джон Херцфелд / John Herzfeld
В ролях:

Сильвестр Сталлоне (Gerald), Томас Джейн (Wolfie), Кира Седжвик (Colette), Том Беренджер (Teddy), Нелли (E-Ruption), Дэнни Айелло (Father Paul), Терри Крюс (Wilson), Кевин Коннолли (Roger), Лорен Кохэн (Kate), Том Сайзмор (Frank), Омари Хардвик (Dominic), Дэвид О’Хара (Thumper)
Описание: Драма развивается вокруг группы людей, каждый из которых как-то связан с книгой по самосовершенствованию, а ее автором является ведущий затворнический образ жизни бывший тренер футбольной команды.

Качество: BDRip 720p
Формат: MKV
Видео кодек: AVC
Аудио кодек: AC3
Видео: AVC, 1280x532 (2.40:1), 6390 kbps, 25 fps, 0,375 bit/pixel
Аудио №1: AC3 / 5.1 / 48 kHz / 640 kbps / 16 bit | AVO - А.Дольский
Аудио №2: AC3 / 5.1 / 48 kHz / 448 kbps / 16 bit | AVO - М.Чадов
Аудио №3: AC3 / 5.1 / 48 kHz / 640 kbps / 16 bit | ENG
Заказ озвучки М.Чадова: Kruj0k

Озвучено по готовым субтитрам. Перевод отредактирован.

Код:

General
Unique ID                                : 254470833916968819760096653048839589170 (0xBF714CC6565E0A039F2D90BCE54ACD32)
Complete name                            : N:\Драма\Dostan.Menya.Esli.Smozhesh.2014.2xRus.Eng.BDRip.720p.-HELLYWOOD.mkv
Format                                   : Matroska
Format version                           : Version 4 / Version 2
File size                                : 5.00 GiB
Duration                                 : 1h 28mn
Overall bit rate                         : 8 081 Kbps
Movie name                               : Reach Me  (2014)
Encoded date                             : UTC 2016-07-20 07:51:11
Writing application                      : mkvmerge v5.9.0 ('On The Loose') built on Dec 15 2012 16:39:58
Writing library                          : libebml v1.3.0 + libmatroska v1.4.0

Video
ID                                       : 1
Format                                   : AVC
Format/Info                              : Advanced Video Codec
Format profile                           : High@L4.1
Format settings, CABAC                   : Yes
Format settings, ReFrames                : 9 frames
Codec ID                                 : V_MPEG4/ISO/AVC
Duration                                 : 1h 28mn
Bit rate                                 : 6 390 Kbps
Width                                    : 1 280 pixels
Height                                   : 532 pixels
Display aspect ratio                     : 2.40:1
Frame rate                               : 25.000 fps
Color space                              : YUV
Chroma subsampling                       : 4:2:0
Bit depth                                : 8 bits
Scan type                                : Progressive
Bits/(Pixel*Frame)                       : 0.375
Stream size                              : 3.83 GiB (77%)
Title                                    : potroks
Writing library                          : x264 core 146 r2538 121396c
Encoding settings                        : cabac=1 / ref=9 / deblock=1:-2:-2 / analyse=0x3:0x113 / me=umh / subme=11 / psy=1 / psy_rd=1.05:0.10 / mixed_ref=1 / me_range=48 / chroma_me=1 / trellis=2 / 8x8dct=1 / cqm=0 / deadzone=21,11 / fast_pskip=0 / chroma_qp_offset=-3 / threads=9 / lookahead_threads=2 / sliced_threads=0 / nr=0 / decimate=0 / interlaced=0 / bluray_compat=0 / constrained_intra=0 / bframes=10 / b_pyramid=2 / b_adapt=2 / b_bias=0 / direct=3 / weightb=1 / open_gop=0 / weightp=2 / keyint=250 / keyint_min=23 / scenecut=40 / intra_refresh=0 / rc_lookahead=60 / rc=2pass / mbtree=0 / bitrate=6390 / ratetol=1.0 / qcomp=0.70 / qpmin=0 / qpmax=69 / qpstep=4 / cplxblur=20.0 / qblur=0.5 / vbv_maxrate=14000 / vbv_bufsize=14000 / nal_hrd=none / filler=0 / ip_ratio=1.40 / pb_ratio=1.30 / aq=1:0.80
Language                                 : English
Default                                  : Yes
Forced                                   : No

Audio #1
ID                                       : 2
Format                                   : AC-3
Format/Info                              : Audio Coding 3
Mode extension                           : CM (complete main)
Codec ID                                 : A_AC3
Duration                                 : 1h 28mn
Bit rate mode                            : Constant
Bit rate                                 : 640 Kbps
Channel(s)                               : 6 channels
Channel positions                        : Front: L C R, Side: L R, LFE
Sampling rate                            : 48.0 KHz
Bit depth                                : 16 bits
Compression mode                         : Lossy
Stream size                              : 405 MiB (8%)
Title                                    : AVO | DD 5.1 @ 640 kbps - A.Dolsky
Language                                 : Russian
Default                                  : Yes
Forced                                   : No

Audio #2
ID                                       : 3
Format                                   : AC-3
Format/Info                              : Audio Coding 3
Mode extension                           : CM (complete main)
Codec ID                                 : A_AC3
Duration                                 : 1h 28mn
Bit rate mode                            : Constant
Bit rate                                 : 448 Kbps
Channel(s)                               : 6 channels
Channel positions                        : Front: L C R, Side: L R, LFE
Sampling rate                            : 48.0 KHz
Bit depth                                : 16 bits
Compression mode                         : Lossy
Stream size                              : 284 MiB (6%)
Title                                    : AVO | DD 5.1 @ 448 kbps - M.Chadov
Language                                 : English
Default                                  : No
Forced                                   : No

Audio #3
ID                                       : 4
Format                                   : AC-3
Format/Info                              : Audio Coding 3
Mode extension                           : CM (complete main)
Codec ID                                 : A_AC3
Duration                                 : 1h 28mn
Bit rate mode                            : Constant
Bit rate                                 : 640 Kbps
Channel(s)                               : 6 channels
Channel positions                        : Front: L C R, Side: L R, LFE
Sampling rate                            : 48.0 KHz
Bit depth                                : 16 bits
Compression mode                         : Lossy
Stream size                              : 405 MiB (8%)
Title                                    : Original | DD 5.1 @ 640 kbps
Language                                 : English
Default                                  : No
Forced                                   : No

Text #1
ID                                       : 5
Format                                   : UTF-8
Codec ID                                 : S_TEXT/UTF8
Codec ID/Info                            : UTF-8 Plain Text
Language                                 : Russian
Default                                  : No
Forced                                   : No

Text #2
ID                                       : 6
Format                                   : UTF-8
Codec ID                                 : S_TEXT/UTF8
Codec ID/Info                            : UTF-8 Plain Text
Title                                    : Full
Language                                 : English
Default                                  : No
Forced                                   : No

Text #3
ID                                       : 7
Format                                   : UTF-8
Codec ID                                 : S_TEXT/UTF8
Codec ID/Info                            : UTF-8 Plain Text
Title                                    : SDH
Language                                 : English
Default                                  : No
Forced                                   : No

Menu
00:00:00.000                             : en:(01)00:00:00:000
00:08:08.600                             : en:(02)00:08:08:600
00:15:45.639                             : en:(03)00:15:45:639
00:22:32.356                             : en:(04)00:22:32:356
00:30:14.480                             : en:(05)00:30:14:480
00:37:12.119                             : en:(06)00:37:12:119
00:45:14.559                             : en:(07)00:45:14:559
00:50:36.000                             : en:(08)00:50:36:000
01:01:05.840                             : en:(09)01:01:05:840
01:06:26.159                             : en:(10)01:06:26:159
01:14:26.680                             : en:(11)01:14:26:680
01:21:37.840                             : en:(12)01:21:37:840

pb.wtf



Скачать Достань меня, если сможешь через торрент http://i80.fastpic.ru/big/2016/0720/23/e9f5465ab58c28f47887809de4378023.png Скачать, смотреть онлайн Достань меня, если сможешь бесплантно в хорошем качестве Описание: Драма развивается вокруг группы людей, каждый из которых как-то связан с книгой по самосовершенствованию, а ее автором является ... 10 10 2
Info! Золотая раздача, скачанное не засчитывается.
Торрент: Зарегистрирован [2016-07-20 10:11] · скачан: 13 раз
Статус: √ проверено
Размер: 5 GB
Как cкачать? Как скачать Достань меня, если сможешь через торрент | UTorrent

% Раздел Тема Автор DL S | L
Фильмы с авторской озвучкой [ 4.59 GB ] Достань меня если сможешь / Reach Me [2014 BDRip 1080p HEVC AVO+DVO+VO] Мичман37 Скачать
1 | 0

28-11-2019 20:33  

Отключить всю рекламу на сайте

    Дорогой пользователь! Огромная просьба, поблагодарите релизера, оцените раздачу и оставьте свои комментарий, если Вы скачали Достань меня, если сможешь через торрент бесплатно!
    Комментировать посты могут только пользователи прошедшие не сложную регистрацию
    Показать сообщения:    

    Достань меня, если сможешь через торрент
    Скачать бесплатно Достань меня, если сможешь
    Достань меня, если сможешь скачать торрент
    Достань меня, если сможешь смотреть онлайн
    Cкачать фильм Достань меня, если сможешь бесплатно
    Достань меня, если сможешь скачать торрент в хорошем качестве
    Достань меня, если сможешь смотреть онлайн бесплатно в хорошем качестве


    Вы не можете начинать темы
    Вы не можете отвечать на сообщения
    Вы не можете редактировать свои сообщения
    Вы не можете удалять свои сообщения
    Вы не можете голосовать в опросах
    Вы не можете прикреплять файлы к сообщениям
    Вы можете скачивать файлы