Всегда рабочее зеркало без VPN и Proxy просто перед .vidak.icu напиши любое слово или цифру, Пример http://v91w.vidak.icu

MVO

2 сезон

2 сезон

1

1 сезон

iTunes

2 сезон

13

1 сезон

Распродажа

pack

Рекомендуем

Пиратка

30

ВАЖНО

RePack

MK11

RePack

jed

RePack

fifa19

RePack

RDR2

RePack

NEED FOR SPEED™ PAYBACK

Кинопоиск HD

6 сезон

 Острые козырьки 6 сезон

Все сериалы

все сериалы на PB.wtf

RePack

FAR CRY 5

Anonymous, нам критически не хватает 5601 руб. на оплату серверов и переферии за Апрель, помоги нам пожалуйста, вся надежда только на тебя. В благодарность мы отключим тебе всю рекламу на сайте!

×
  
Magnet ссылка

Тихая застава (Сергей Маховиков) [2010, Военный, Драма, BDRip] pb.wtf

Тихая застава через торрент pb.wtf

Размер: 745 MB | Добавлен: 5 лет 9 мес. назад | Торрент скачан:23 раза
Смотреть онлайн Тихая застава | Скачать    Ребята, помогите собрать деньги на оплату серверов!!!

20-07-2016 15:20 Тихая застава Скачать торрент  

Тихая застава

Год выпуска: 2010
Жанр: Военный, Драма
Продолжительность: 01:32:09
Русские субтитры: нет

Режиссер: Сергей Маховиков

В ролях: Андрей Чадов, Сергей Селин, Игорь Савочкин, Александр Алёшкин,Юрий Коновалов, Азамат Нигманов, Рустам Сагдуллаев, Адель Зайнуллин, Тимур Ефременков, Нино Нинидзе и др.
Описание: Бой на 12-й пограничной заставе Московского погранотряда в Республике Таджикистан произошел во вторник 13 июля 1993 года. Афганские и таджикские боевики попытались прорваться на территорию этой страны. Российские военные 11 часов отражали атаки противника, 25 человек погибло. После этого наши отступили. Позднее в тот же день застава была отбита. По итогам боя шестеро пограничников были удостоены звания Героя Российской Федерации, в том числе четверо — посмертно.
СЭМПЛ


Качество: BDRip Исходник Blu-ray 1080p
Формат: AVI
Видео кодек: XviD
Видео: 672x288 (2.33:1), 23.976 fps, XviD build 63 ~992 kbps avg, 0.21 bit/pixel
Аудио: 48 kHz, MPEG Layer 3, 2 ch, ~128.00 kbps avg

[url=https://piratbit.top/goo.php?url=https://piratbit.top/goo.php?url=http://radikal.ru/f/s002.radikal.ru/i198/1111/5c/12f5e2fc6c77.png.html]
[/url]

Код:

General
Complete name                            : C:\Users\ghdf\Desktop\Tihaya_Zastava_2010_BDRip_745.avi
Format                                   : AVI
Format/Info                              : Audio Video Interleave
File size                                : 745 MiB
Duration                                 : 1h 32mn
Overall bit rate                         : 1 130 Kbps
Director                                 : Menen
Writing application                      : VirtualDubMod 1.5.10.2 (build 2540/release)

Video
ID                                       : 0
Format                                   : MPEG-4 Visual
Format profile                           : Advanced Simple@L5
Format settings, BVOP                    : 2
Format settings, QPel                    : No
Format settings, GMC                     : No warppoints
Format settings, Matrix                  : Custom
Codec ID                                 : XVID
Codec ID/Hint                            : XviD
Duration                                 : 1h 32mn
Bit rate                                 : 948 Kbps
Width                                    : 672 pixels
Height                                   : 288 pixels
Display aspect ratio                     : 2.35:1
Frame rate                               : 23.976 fps
Color space                              : YUV
Chroma subsampling                       : 4:2:0
Bit depth                                : 8 bits
Scan type                                : Progressive
Compression mode                         : Lossy
Bits/(Pixel*Frame)                       : 0.204
Stream size                              : 625 MiB (84%)
Writing library                          : XviD 63

Audio
ID                                       : 1
Format                                   : MPEG Audio
Format version                           : Version 1
Format profile                           : Layer 3
Mode                                     : Joint stereo
Mode extension                           : MS Stereo
Codec ID                                 : 55
Codec ID/Hint                            : MP3
Duration                                 : 1h 32mn
Bit rate mode                            : Constant
Bit rate                                 : 128 Kbps
Channel count                            : 2 channels
Sampling rate                            : 48.0 KHz
Compression mode                         : Lossy
Stream size                              : 84.3 MiB (11%)
Alignment                                : Aligned on interleaves

pb.wtf



Скачать Тихая застава через торрент http://s017.radikal.ru/i443/1111/c8/174897081c96.jpg Скачать, смотреть онлайн Тихая застава бесплантно в хорошем качестве Описание: Бой на 12-й пограничной заставе Московского погранотряда в Республике Таджикистан произошел во вторник 13 июля 1993 года. ... 10 10 5
Info! Золотая раздача, скачанное не засчитывается.
Торрент: Зарегистрирован [2016-07-20 15:20] · скачан: 23 раз
Статус: √ проверено
Размер: 745 MB
Как cкачать? Как скачать Тихая застава через торрент | UTorrent

% Раздел Тема Автор DL S | L
Наши фильмы (Blu-ray, BD-Remux, HDDVD) [ 14.56 GB ] Тихая застава [2010 военный BD Remux Оригинальный] Бумер Скачать
1 | 0
Наши фильмы 2010-2011 [ 2.3 GB ] Тихая застава [2010 военный BDRip-AVC лицензия] - ExKinoRay Enigma2010 Скачать
1 | 0
Наши фильмы (Blu-ray, BD-Remux, HDDVD) [ 16.9 GB ] Тихая застава [2010 военный Blu-ray Оригинал] Бумер Скачать
1 | 0
Наши фильмы 2010-2011 [ 702 MB ] Тихая застава [2010 военный DVDRip] WISE Скачать
1 | 0
Наши фильмы 2010-2011 [ 1.46 GB ] Тихая застава [2010 военный DVDRip-AVC] WISE Скачать
1 | 0
Наши фильмы 2010-2011 [ 1.36 GB ] Тихая застава [2010 военный HDRip лицензия] Lil Badun Скачать
1 | 0
Наши фильмы (DVD фильмы) [ 4.14 GB ] Тихая застава [2010 военный DVD5 лицензия] DEMIGOD2012 Скачать
1 | 0

28-11-2019 20:33  

Отключить всю рекламу на сайте

20-07-2016 15:35 Тихая застава Скачать торрент  

Спс.pb.wtf



20-07-2016 15:41 Тихая застава Скачать торрент  

rayl116rus писал(а):

Спс.

pb.wtf



20-07-2016 16:09 Тихая застава Скачать торрент  

Золото! Спасибо!pb.wtf



20-07-2016 17:49 Тихая застава Скачать торрент  

Darkkiller32 писал(а):

Золото! Спасибо!

pb.wtf



    Дорогой пользователь! Огромная просьба, поблагодарите релизера, оцените раздачу и оставьте свои комментарий, если Вы скачали Тихая застава через торрент бесплатно!
    Комментировать посты могут только пользователи прошедшие не сложную регистрацию
    Показать сообщения:    

    Тихая застава через торрент
    Скачать бесплатно Тихая застава
    Тихая застава скачать торрент
    Тихая застава смотреть онлайн
    Cкачать фильм Тихая застава бесплатно
    Тихая застава скачать торрент в хорошем качестве
    Тихая застава смотреть онлайн бесплатно в хорошем качестве


    Вы не можете начинать темы
    Вы не можете отвечать на сообщения
    Вы не можете редактировать свои сообщения
    Вы не можете удалять свои сообщения
    Вы не можете голосовать в опросах
    Вы не можете прикреплять файлы к сообщениям
    Вы можете скачивать файлы