1 сезон

1 сезон

iTunes

1

КиноПоиск HD

Кинопоиск HD

iTunes

13

1 сезон

RePack

30

Новинка

ВАЖНО

ИГРА 18+

pack

RePack

MK11
pack

Легкие деньги

RePack

jed

RePack

fifa19

RePack

RDR2

RePack

NEED FOR SPEED™ PAYBACK

4 сезон

9 сезон

Бесстыжие 9 сезон

Все сериалы

все сериалы на PB.wtf

RePack

FAR CRY 5
  
Magnet ссылка

Игры разума / A Beautiful Mind (Рон Ховард / Ron Howard) [2001 г., драма, биография, BDRip] Dub pb.wtf

Игры разума через торрент pb.wtf

Размер: 1.46 GB | Добавлен: 4 года 8 мес. назад | Торрент скачан:258 раз
Скачать  

20-07-2016 15:58 Игры разума Скачать торрент  

Игры разумаA Beautiful Mind Год выпуска: 2001
Страна: США
Жанр: драма, биография
Продолжительность: 2:15:19
Перевод: Профессиональный полное дублирование R5
Cубтитры: нет
Режиссёр: Рон Ховард / Ron Howard
В ролях:
Рассел Кроу, Дженнифер Коннелли, Эд Харрис, Кристофер Пламмер, Пол Беттани, Адам Голдберг, Джош Лукас, Энтони Рэпп, Джейсон Грэй-Стэнфорд, Джадд Хирш, Остин Пендлтон
Описание:
От всемирной известности до греховных глубин — все это познал на своей шкуре Джон Форбс Нэш-младший. Математический гений, он на заре своей карьеры сделал титаническую работу в области теории игр, которая практически перевернула этот раздел математики и принесла ему международную известность. Однако буквально в то же время заносчивый и пользующийся успехом у женщин Нэш получает удар, который переворачивает уже его собственную жизнь — врачи ставят ему диагноз "параноидная шизофрения". Лишь после долгих лет борьбы ему удается победить свой недуг и наконец получить заслуженную Нобелевскую премию.
IMDB: 8.1/10 (261,181 votes) Тор 250: 197
Тор 250:
15

Сэмпл

Качество видеоBDRip
Формат видео: AVI
Видео кодек: XviD
Аудио кодек : АС3
Видео: 704x384 (1.83:1), 23.976 fps, XviD, ~1342 kbps avg, 0.21 bit/pixel
Аудио : 48 kHz, AC3 Dolby Digital, 2/0 (L,R) ch, ~192.00 kbps avg

скриншот   скриншот   скриншот  
http://screenshotcomparison.com/comparison/156226
наличие у конкурента в видеоряде вшитых русских субтитров на надписи, озвученные в дубляже, о которых не указано в раздаче
General
Complete name : C:\Users\ghdf\Desktop\Igri.Razuma.2001.BDRip.avi
Format : AVI
Format/Info : Audio Video Interleave
File size : 1.46 GiB
Duration : 2h 15mn
Overall bit rate : 1 543 Kbps
Writing application : VirtualDubMod 1.5.10.3 | www.virtualdub-fr.org || (build 2550/release)
Writing library : VirtualDubMod build 2550/release

Video
ID : 0
Format : MPEG-4 Visual
Format profile : Advanced Simple@L5
Format settings, BVOP : 1
Format settings, QPel : No
Format settings, GMC : No warppoints
Format settings, Matrix : Custom
Codec ID : XVID
Codec ID/Hint : XviD
Duration : 2h 15mn
Bit rate : 1 281 Kbps
Width : 704 pixels
Height : 384 pixels
Display aspect ratio : 1.85:1
Frame rate : 23.976 fps
Color space : YUV
Chroma subsampling : 4:2:0
Bit depth : 8 bits
Scan type : Progressive
Compression mode : Lossy
Bits/(Pixel*Frame) : 0.198
Stream size : 1.21 GiB (83%)
Writing library : XviD 64

Audio
ID : 1
Format : AC-3
Format/Info : Audio Coding 3
Mode extension : CM (complete main)
Format settings, Endianness : Big
Codec ID : 2000
Duration : 2h 15mn
Bit rate mode : Constant
Bit rate : 192 Kbps
Channel count : 2 channels
Channel positions : Front: L R
Sampling rate : 48.0 KHz
Bit depth : 16 bits
Compression mode : Lossy
Stream size : 186 MiB (12%)
Alignment : Split accross interleaves
[/code]
pb.wtf



Скачать Игры разума через торрент https://pic1.kartinco.top/images/11/fr7tg.jpg Скачать фильм Игры разума через торрент бесплантно в хорошем качестве Описание:От всемирной известности до греховных глубин — все это познал на своей шкуре Джон Форбс Нэш-младший. Математический гений, он на ... 10 10 4
Торрент: Зарегистрирован [2016-07-20 15:58] · скачан: 258 раз
Статус: √ проверено
Размер: 1.46 GB
Как cкачать? Как скачать Игры разума через торрент | UTorrent

% Раздел Тема Автор DL S | L
Фильмы [HD 720p, 1080p] (Хороший звук DUB, MVO) [ 10.48 GB ] Игры разума / A Beautiful Mind [2001 биография BDRip 720p от _denis_100 / NNNB] DUB + 3xMVO + 2xAVO + Original + Sub _denis_100 Скачать
1 | 0
Фильмы 2001-2005 [ 2.55 GB ] Игры разума / Beautiful Mind A [2001 Биографический HDRip] DUB -=Cherry=- Скачать
1 | 0

28-11-2019 20:33  

Отключить всю рекламу на сайте

    Дорогой пользователь! Огромная просьба, поблагодарите релизера, оцените раздачу и оставьте свои комментарий, если Вы скачали Игры разума через торрент бесплатно! Внесите свою лепту в развитие PiratBit!
    Комментировать посты могут только пользователи прошедшие не сложную регистрацию
    Показать сообщения:    

    Игры разума через торрент
    Скачать бесплатно Игры разума
    Игры разума скачать торрент
    Игры разума смотреть онлайн
    Cкачать фильм Игры разума бесплатно
    Игры разума скачать торрент в хорошем качестве
    Игры разума смотреть онлайн бесплатно в хорошем качестве


    Вы не можете начинать темы
    Вы не можете отвечать на сообщения
    Вы не можете редактировать свои сообщения
    Вы не можете удалять свои сообщения
    Вы не можете голосовать в опросах
    Вы не можете прикреплять файлы к сообщениям
    Вы можете скачивать файлы