Всегда рабочее зеркало без VPN и Proxy просто перед .vidak.icu напиши любое слово или цифру, Пример http://ze9e.vidak.icu

MVO

2 сезон

2 сезон

1

1 сезон

iTunes

2 сезон

13

1 сезон

Распродажа

pack

Рекомендуем

Пиратка

30

ВАЖНО

RePack

MK11

RePack

jed

RePack

fifa19

RePack

RDR2

RePack

NEED FOR SPEED™ PAYBACK

Кинопоиск HD

6 сезон

 Острые козырьки 6 сезон

Все сериалы

все сериалы на PB.wtf

RePack

FAR CRY 5

Anonymous, нам критически не хватает 5601 руб. на оплату серверов и переферии за Апрель, помоги нам пожалуйста, вся надежда только на тебя. В благодарность мы отключим тебе всю рекламу на сайте!

×
  
Magnet ссылка

Брат 2. 15 лет спустя [2016 г., Концерт, WEB-DL 720p] pb.wtf

Брат 2. 15 лет спустя через торрент pb.wtf

Размер: 4.61 GB | Добавлен: 5 лет 9 мес. назад | Торрент скачан:220 раз
Смотреть онлайн Брат 2. 15 лет спустя | Скачать    Ребята, помогите собрать деньги на оплату серверов!!!

20-07-2016 17:07 Брат 2. 15 лет спустя Скачать торрент  

Брат 2. 15 лет спустя
Год выпуска: 2016
Страна: Россия

Жанр: Концерт
Продолжительность: 03:51:59
Описание:

Фильмы Алексея Балабанова явились шоком для целого поколения, а затем стали народными. Для многих они стали «настольной книгой» о честности, дружбе, силе слова и, конечно, о силе любви. Атмосфера этих фильмов такова, что ею смогли задышать сотни тысяч людей, а музыка из них – стала едва ли не самым главным саундтреком целой жизни нескольких поколений.

«Брат-2» вышел на сломе эпох в 2000-ом и сразу вошел в разряд культовых и любимых.

Сразу же после выхода фильма музыкальная пресса окрестила альбом «Брат-2» «энциклопедией русской музыкальной жизни конца 20 века». Это и колоссальный интерес публики к феномену под названием «Брат-2», но, конечно, и удивительное попадание музыки, вошедшей в саундтрек картины, в настроение фильма.

Осенью 2015 года в Санкт-Петербурге с аншлагом прошел концерт, на котором была воссоздана атмосфера культового фильма. На сцену вышли легендарные исполнители и группы, чтобы спеть любимые песни нескольких поколений. 19 мая живой саундтрек к «Брат-2» прозвучал в Москве. Вячеслав Бутусов и «Ю-Питер», «Би-2», Вадим Самойлов, Настя Полева, «Смысловые Галлюцинации», Глеб Самойлов & The Matrixx со сцены исполнят свои легендарные песни, чтобы вместе со зрителями снова почувствовать всепоглощающую свободу жизни.
Би-2:
01. Компромисс
02. Революция
03. Вечная призрачная встречная
04. Варвара
05. Мой рок-н-ролл (при участии Насти Полевой)
06. Полковник

The Matrixx:
01. Никто не выжил (при участии Алексея Могилевского)
02. Романтика
03. Секрет
04. Пуля
05. Ковёр-вертолёт
06. Опиум для никого

Смысловые галлюцинации:
01. Вечно молодой
02. Разум когда-нибудь победит
03. Розовые очки
04. Зверь-2
05. Последний герой

Сплин:
01. Линия жизни
02. Оркестр
03. Всадник
04. Рай в шалаше
05. Танцуй
06. Выхода нет

Настя:
01. Ветер
02. Летучий фрегат
03. Снежные волки

Ю-Питер:
01. Гибралтар – Лабрадор
02. Зверь
03. Крылья
04. Дыхание
05. Хлоп-хлоп
06. Прощальное письмо

Вадим Самойлов:
01. Семь миллиардов богов
02. Позови меня, небо
03. Истерика
04. Никогда
05. Сказочная тайга
Качество: WEB-DL 720p
Формат: MKV
Видео кодек: MPEG4
Аудио кодек: AC3
Видео: MPEG-4 AVC, 2594 Кбит/с, 1280x720, 50 fps
Аудио#1: AC3, 2 ch, 192 Кбит/с, 44.1 KHz
Complete name : F:\Раздачи\БРАТ 2׃ (2016).mkv
Format : Matroska
Format version : Version 4 / Version 2
File size : 4.61 GiB
Duration : 3h 51mn
Overall bit rate : 2 842 Kbps

Video
ID : 1
Format : AVC
Format/Info : Advanced Video Codec
Format profile : Main@L3.2
Format settings, CABAC : Yes
Format settings, ReFrames : 3 frames
Codec ID : V_MPEG4/ISO/AVC
Duration : 3h 51mn
Bit rate : 2 594 Kbps
Width : 1 280 pixels
Height : 720 pixels
Display aspect ratio : 16:9
Frame rate mode : Constant
Frame rate : 50.000 fps
Color space : YUV
Chroma subsampling : 4:2:0
Bit depth : 8 bits
Scan type : Progressive
Bits/(Pixel*Frame) : 0.056
Stream size : 4.20 GiB (91%)
Default : Yes
Forced : No
Color range : Limited
Color primaries : BT.709
Transfer characteristics : BT.709
Matrix coefficients : BT.709

Audio
ID : 2
Format : AC-3
Format/Info : Audio Coding 3
Mode extension : CM (complete main)
Format settings, Endianness : Big
Codec ID : A_AC3
Duration : 3h 51mn
Bit rate mode : Constant
Bit rate : 192 Kbps
Channel(s) : 2 channels
Channel positions : Front: L R
Sampling rate : 44.1 KHz
Frame rate : 28.711 fps (1536 spf)
Compression mode : Lossy
Delay relative to video : 24ms
Stream size : 319 MiB (7%)
Default : Yes
Forced : No

скриншот   скриншот   скриншот   скриншот   скриншот   скриншот  pb.wtf



Скачать Брат 2. 15 лет спустя через торрент https://pic1.kartinco.top/images/10/ksntv.jpg Скачать, смотреть онлайн Брат 2. 15 лет спустя [2016 г., Концерт, WEB-DL 720p] бесплантно в хорошем качестве Описание: Фильмы Алексея Балабанова явились шоком для целого поколения, а затем стали народными. Для многих они стали «настольной книгой» о ... 9.9 10 17
Info! Золотая раздача, скачанное не засчитывается.
Торрент: Зарегистрирован [2016-07-20 17:07] · скачан: 220 раз
Статус: √ проверено
Размер: 4.61 GB
Как cкачать? Как скачать Брат 2. 15 лет спустя через торрент | UTorrent

28-11-2019 20:33  

Отключить всю рекламу на сайте

28-08-2016 19:03 Брат 2. 15 лет спустя Скачать торрент  

спасибо очень!pb.wtf



    Дорогой пользователь! Огромная просьба, поблагодарите релизера, оцените раздачу и оставьте свои комментарий, если Вы скачали Брат 2. 15 лет спустя через торрент бесплатно!
    Комментировать посты могут только пользователи прошедшие не сложную регистрацию
    Показать сообщения:    

    Брат 2. 15 лет спустя через торрент
    Скачать бесплатно Брат 2. 15 лет спустя
    Брат 2. 15 лет спустя скачать торрент
    Брат 2. 15 лет спустя смотреть онлайн
    Cкачать фильм Брат 2. 15 лет спустя бесплатно
    Брат 2. 15 лет спустя скачать торрент в хорошем качестве
    Брат 2. 15 лет спустя смотреть онлайн бесплатно в хорошем качестве


    Вы не можете начинать темы
    Вы не можете отвечать на сообщения
    Вы не можете редактировать свои сообщения
    Вы не можете удалять свои сообщения
    Вы не можете голосовать в опросах
    Вы не можете прикреплять файлы к сообщениям
    Вы можете скачивать файлы