Всегда рабочее зеркало без VPN и Proxy просто перед .vidak.icu напиши любое слово или цифру, Пример http://6lpi.vidak.icu

MVO

2 сезон

2 сезон

1

1 сезон

iTunes

2 сезон

13

1 сезон

Распродажа

pack

Рекомендуем

Пиратка

30

ВАЖНО

RePack

MK11

RePack

jed

RePack

fifa19

RePack

RDR2

RePack

NEED FOR SPEED™ PAYBACK

Кинопоиск HD

6 сезон

 Острые козырьки 6 сезон

Все сериалы

все сериалы на PB.wtf

RePack

FAR CRY 5

Anonymous, нам критически не хватает 5601 руб. на оплату серверов и переферии за Апрель, помоги нам пожалуйста, вся надежда только на тебя. В благодарность мы отключим тебе всю рекламу на сайте!

×
  
Magnet ссылка

Пробуждение смерти / Wake of death (Филипп Мартинез / Philippe Martinez) [2004 г., Драма, Триллер, Боевик, DVDRip-AVC] MVO + Eng pb.wtf

Пробуждение смерти через торрент pb.wtf

Размер: 1.36 GB | Добавлен: 5 лет 9 мес. назад | Торрент скачан:10 раз
Смотреть онлайн Пробуждение смерти | Скачать    Ребята, помогите собрать деньги на оплату серверов!!!

20-07-2016 17:48 Пробуждение смерти Скачать торрент  

Пробуждение смерти / Wake of death

Год выпуска: 2004
Страна: США
Жанр: Драма, Триллер, Боевик
Продолжительность: 01:26:44
Перевод: Профессиональный (многоголосый, закадровый) + Оригинал
Русские субтитры: нет

Режиссер: Филипп Мартинез /Philippe Martinez

В ролях: Жан-Клод Ван Дамм /Jean-Claude Van Damme/, Валери Тиан /Valerie Tian/, Тони Шина /Tony Schiena/, Квинтон Чон /Quinton Chong/, Уинстон Чон /Winston Chong/, Террин Даунс /Tarryn Downes/

Описание: Планы бывалого гангстера Бена Арчера уйти на покой внезапно срываются, когда его жена решает на время приютить юную беглянку из Азии. Арчеры не подозревают, что Ким — дочь могущественного босса китайской триады Сун Куана, на поиски которой он бросил своих головорезов.
Обнаружив ее следы в Америке, Сун Куан устраняет всех на своем пути, и хотя Ким и сын Арчера спасаются, его супруга погибает. Отныне в жизни Бена есть единственная цель — беспощадная месть…

Доп. информация:
слоган: «Revenge is all he has left.»
сценарий: Майкл Дэвис, Лорен Феллас, Кристина Хэмилтон, ...
продюсер: Дональд А. Бартон, Каринн Бер, Кристофер Робин Белл, ...
оператор: Эммануэль Кадош, Майкл Свон
композитор: Гай Фарли

бюджет: 000 000
премьера (мир): 18 октября 2004


http://www.imdb.com/title/tt0367478/

Семпл: 20,1mb

Качество: DVDRip-AVC
Формат: MKV
Видео кодек: H.264
Аудио кодек: AC3
Видео: размер кадра: 720x576 @ 768x576, 25 fps, битрейт: 1431 кб/с
Аудио#1: аудиокодек: AC3 5.1, 48 KHz, битрейт аудио: 384 кб/с - Многоголосный
Аудио#2: аудиокодек: AC3 5.1, 48 KHz, битрейт аудио: 384 кб/с - Оригинал
Format : Matroska
File size : 1.36 GiB
Duration : 1h 26mn
Overall bit rate : 2 243 Kbps
Encoded date : UTC 2010-03-14 19:03:48
Writing application : mkvmerge v3.0.0 ('Hang up your Hang-Ups') built on Jan 6 2010 22:49:38
Writing library : libebml v0.7.9 + libmatroska v0.8.1

Video
ID : 1
Format : AVC
Format/Info : Advanced Video Codec
Format profile : High@L3.1
Format settings, CABAC : Yes
Format settings, ReFrames : 8 frames
Muxing mode : Container profile=Unknown@3.1
Codec ID : V_MPEG4/ISO/AVC
Duration : 1h 26mn
Bit rate : 1 431 Kbps
Nominal bit rate : 1 475 Kbps
Width : 720 pixels
Height : 576 pixels
Display aspect ratio : 4:3
Original display aspect ratio : 4:3
Frame rate : 25.000 fps
Standard : PAL
Resolution : 24 bits
Colorimetry : 4:2:0
Scan type : Progressive
Bits/(Pixel*Frame) : 0.138
Stream size : 888 MiB (64%)
Title : Пробуждение Смерти
Writing library : x264 core 88 r1471 1144615
Encoding settings : cabac=1 / ref=8 / deblock=1:-1:-1 / analyse=0x3:0x133 / me=umh / subme=7 / psy=1 / psy_rd=1.00:0.10 / mixed_ref=1 / me_range=16 / chroma_me=1 / trellis=2 / 8x8dct=1 / cqm=0 / deadzone=21,11 / fast_pskip=0 / chroma_qp_offset=-3 / threads=6 / sliced_threads=0 / nr=0 / decimate=1 / mbaff=0 / constrained_intra=0 / bframes=3 / b_pyramid=2 / b_adapt=2 / b_bias=0 / direct=3 / wpredb=1 / wpredp=2 / keyint=250 / keyint_min=25 / scenecut=40 / intra_refresh=0 / rc_lookahead=50 / rc=2pass / mbtree=1 / bitrate=1475 / ratetol=1.0 / qcomp=0.60 / qpmin=10 / qpmax=51 / qpstep=4 / cplxblur=20.0 / qblur=0.5 / ip_ratio=1.40 / aq=1:1.00
Language : English

Audio #1
ID : 2
Format : AC-3
Format/Info : Audio Coding 3
Codec ID : A_AC3
Duration : 1h 26mn
Bit rate mode : Constant
Bit rate : 384 Kbps
Channel(s) : 6 channels
Channel positions : Front: L C R, Surround: L R, LFE
Sampling rate : 48.0 KHz
Stream size : 238 MiB (17%)
Title : Многоголосный
Language : Russian

Audio #2
ID : 3
Format : AC-3
Format/Info : Audio Coding 3
Codec ID : A_AC3
Duration : 1h 26mn
Bit rate mode : Constant
Bit rate : 384 Kbps
Channel(s) : 6 channels
Channel positions : Front: L C R, Surround: L R, LFE
Sampling rate : 48.0 KHz
Stream size : 238 MiB (17%)
Title : Оригинал
Language : English
pb.wtf



Скачать Пробуждение смерти через торрент http://i2.fastpic.ru/big/2010/0314/d8/920f3b1cb11f90c0ed91e25215e020d8.jpg Скачать, смотреть онлайн Пробуждение смерти бесплантно в хорошем качестве Описание: Планы бывалого гангстера Бена Арчера уйти на покой внезапно срываются, когда его жена решает на время приютить юную беглянку из ... 10 10 1
Торрент: Зарегистрирован [2016-07-20 17:48] · скачан: 10 раз
Статус: √ проверено
Размер: 1.36 GB
Как cкачать? Как скачать Пробуждение смерти через торрент | UTorrent

28-11-2019 20:33  

Отключить всю рекламу на сайте

    Дорогой пользователь! Огромная просьба, поблагодарите релизера, оцените раздачу и оставьте свои комментарий, если Вы скачали Пробуждение смерти через торрент бесплатно!
    Комментировать посты могут только пользователи прошедшие не сложную регистрацию
    Показать сообщения:    

    Пробуждение смерти через торрент
    Скачать бесплатно Пробуждение смерти
    Пробуждение смерти скачать торрент
    Пробуждение смерти смотреть онлайн
    Cкачать фильм Пробуждение смерти бесплатно
    Пробуждение смерти скачать торрент в хорошем качестве
    Пробуждение смерти смотреть онлайн бесплатно в хорошем качестве


    Вы не можете начинать темы
    Вы не можете отвечать на сообщения
    Вы не можете редактировать свои сообщения
    Вы не можете удалять свои сообщения
    Вы не можете голосовать в опросах
    Вы не можете прикреплять файлы к сообщениям
    Вы можете скачивать файлы