Всегда рабочее зеркало без VPN и Proxy просто перед .vidak.icu напиши любое слово или цифру, Пример http://5kij.vidak.icu

MVO

2 сезон

2 сезон

1

1 сезон

iTunes

2 сезон

13

1 сезон

Распродажа

pack

Рекомендуем

Пиратка

30

ВАЖНО

RePack

MK11

RePack

jed

RePack

fifa19

RePack

RDR2

RePack

NEED FOR SPEED™ PAYBACK

Кинопоиск HD

6 сезон

 Острые козырьки 6 сезон

Все сериалы

все сериалы на PB.wtf

RePack

FAR CRY 5

Anonymous, нам критически не хватает 5601 руб. на оплату серверов и переферии за Апрель, помоги нам пожалуйста, вся надежда только на тебя. В благодарность мы отключим тебе всю рекламу на сайте!

×
  
Magnet ссылка

Интакто / Intacto (Хуан Карлос Фреснадильо / Juan Carlos Fresnadillo) [2001, Испания, триллер, драма, DVDRip-AVC] pb.wtf

Интакто через торрент pb.wtf

Размер: 1.46 GB | Добавлен: 5 лет 9 мес. назад | Торрент скачан:22 раза
Смотреть онлайн Интакто | Скачать    Ребята, помогите собрать деньги на оплату серверов!!!

20-07-2016 20:02 Интакто Скачать торрент  

Интакто / Intacto


Страна: Испания
Жанр: Триллер, драма
Год выпуска: 2001
Продолжительность: 01:48:41
Перевод: Профессиональный (дублированный)
Cубтитры: русские
Навигация по главам: присутствует
Режиссер: Хуан Карлос Фреснадильо / Juan Carlos Fresnadillo
В ролях: Леонардо Сбаралья, Эусебио Понсела, Моника Лопез, Антонио Дечент, Макс фон Сюдов, Гильермо Толедо, Альбер Понте, Андреа Сан Винсент и др.
Описание: Люди с завязанными глазами переходят оживленную трассу и, опять же, с повязками на глазах бегут по густому лесу, рискуя врезаться на всей скорости в дерево. Они используют своих знакомых в качестве ставок в игре и разыскивают себе подобных - удачливых баловней судьбы. Тех, кому суждено было погибнуть, но по воле случая удалось спастись.

Фильм рассказывает о тайной всемирной организации, которая развила идею казино почти до абсурда. Рулетки и "однорукие бандиты" остались в прошлом. Теперь победителя определяет экзотическое насекомое: кому из игроков оно сядет на голову, тот и получит виллу у моря и дорогой автомобиль. Один из главных героев остался в живых во время землетрясения, другой избежал гибели в авиакатастрофе, третий испытал все ужасы концлагеря. Самый удачливый станет владельцем всех денег, тайного игорного бизнеса и собственной жизни... До тех пор, пока не появится очередной кандидат, к которому судьба особенно благосклонна.
"Интакто" (в переводе - "неуязвимый") - отличный триллер с довольно сложным сюжетом и массой нестандартных ситуаций. Удача здесь является товаром, который можно продать, отобрать или подарить. Мистический компонент усиливается темой слегка завуалированного "дьявольского искушения": спасшиеся герои, вместо того, чтобы сидеть и тихо радоваться жизни, позволяют втягивать себя в рискованные истории.
Качество: DVDRip
Формат: MKV
Видео кодек: x264
Аудио кодек: AC3
Видео: 720 x 364 @ 853 x 364 (2.343) at 23.976 fps 1 030 Kbps
Аудио:
Русский: 48 kHz AC3 Dolby Digital 6ch 448 kbps
Испанский: 48 kHz AC3 Dolby Digital 6ch 448 kbps

Video
ID : 1
Format : AVC
Format/Info : Advanced Video Codec
Format profile : High@L4.1
Format settings, CABAC : Yes
Format settings, ReFrames : 14 frames
Muxing mode : Container profile=Unknown@4.1
Codec ID : V_MPEG4/ISO/AVC
Duration : 1h 48mn
Bit rate : 994 Kbps
Nominal bit rate : 1 030 Kbps
Width : 720 pixels
Height : 364 pixels
Display aspect ratio : 2.35:1
Frame rate : 23.976 fps
Resolution : 8 bits
Colorimetry : 4:2:0
Scan type : Progressive
Bits/(Pixel*Frame) : 0.158
Stream size : 772 MiB (51%)
Title : intacto (2001)
Writing library : x264 core 110 r1804 e89c4cf
Encoding settings : cabac=1 / ref=14 / deblock=1:-1:-1 / analyse=0x3:0x113 / me=umh / subme=9 / psy=1 / psy_rd=1.15:0.15 / mixed_ref=1 / me_range=24 / chroma_me=1 / trellis=2 / 8x8dct=1 / cqm=0 / deadzone=21,11 / fast_pskip=1 / chroma_qp_offset=-3 / sliced_threads=0 / nr=0 / decimate=1 / interlaced=0 / constrained_intra=0 / bframes=11 / b_pyramid=2 / b_adapt=2 / b_bias=0 / direct=3 / weightb=1 / open_gop=0 / weightp=2 / keyint=240 / keyint_min=24 / scenecut=40 / intra_refresh=0 / rc_lookahead=80 / rc=2pass / mbtree=1 / bitrate=1030 / ratetol=1.0 / qcomp=0.80 / qpmin=0 / qpmax=51 / qpstep=4 / cplxblur=20.0 / qblur=0.5 / ip_ratio=1.40 / aq=1:0.95
Matrix coefficients : BT.470-6 System B, BT.470-6 System G, BT.601-6 625, BT.1358 625, BT.1700 625 PAL, BT.1700 625 SECAM, IEC 61966-2-4 601

Audio #1
ID : 2
Format : AC-3
Format/Info : Audio Coding 3
Codec ID : A_AC3
Duration : 1h 48mn
Bit rate mode : Constant
Bit rate : 448 Kbps
Channel(s) : 6 channels
Channel positions : Front: L C R, Surround: L R, LFE
Sampling rate : 48.0 KHz
Stream size : 348 MiB (23%)
Title : dub
Language : Russian

Audio #2
ID : 3
Format : AC-3
Format/Info : Audio Coding 3
Codec ID : A_AC3
Duration : 1h 48mn
Bit rate mode : Constant
Bit rate : 448 Kbps
Channel(s) : 6 channels
Channel positions : Front: L C R, Surround: L R, LFE
Sampling rate : 48.0 KHz
Stream size : 348 MiB (23%)
Title : original
Language : Spanish

Text
ID : 4
Format : UTF-8
Codec ID : S_TEXT/UTF8
Codec ID/Info : UTF-8 Plain Text
Title : rus
Language : Russian

Menu
скриншот  скриншот  скриншот  скриншот  
pb.wtf



Скачать Интакто через торрент http://s02.radikal.ru/i175/1012/d2/7e9d0edb8688.jpg Скачать, смотреть онлайн Интакто бесплантно в хорошем качестве Описание: Люди с завязанными глазами переходят оживленную трассу и, опять же, с повязками на глазах бегут по густому лесу, рискуя врезаться ... 5 10 1
Торрент: Зарегистрирован [2016-07-20 20:02] · скачан: 22 раз
Статус: T временная
Размер: 1.46 GB
Как cкачать? Как скачать Интакто через торрент | UTorrent

% Раздел Тема Автор DL S | L
Фильмы 2001-2005 [ 1.46 GB ] Интакто / Intacto [2001 ... DVDRip] MoNaZ Скачать
1 | 0

28-11-2019 20:33  

Отключить всю рекламу на сайте

    Дорогой пользователь! Огромная просьба, поблагодарите релизера, оцените раздачу и оставьте свои комментарий, если Вы скачали Интакто через торрент бесплатно!
    Комментировать посты могут только пользователи прошедшие не сложную регистрацию
    Показать сообщения:    

    Интакто через торрент
    Скачать бесплатно Интакто
    Интакто скачать торрент
    Интакто смотреть онлайн
    Cкачать фильм Интакто бесплатно
    Интакто скачать торрент в хорошем качестве
    Интакто смотреть онлайн бесплатно в хорошем качестве


    Вы не можете начинать темы
    Вы не можете отвечать на сообщения
    Вы не можете редактировать свои сообщения
    Вы не можете удалять свои сообщения
    Вы не можете голосовать в опросах
    Вы не можете прикреплять файлы к сообщениям
    Вы можете скачивать файлы