2 сезон

iTunes

MVO

1

2 сезон

iTunes

iTunes

1 сезон

RePack

30

Новинка

ВАЖНО

ИГРА 18+

pack

RePack

MK11
pack

Легкие деньги

RePack

jed

RePack

fifa19

RePack

RDR2

RePack

NEED FOR SPEED™ PAYBACK

4 сезон

9 сезон

Бесстыжие 9 сезон

Все сериалы

все сериалы на PB.wtf

RePack

FAR CRY 5

Anonymous, добрый вечер, мы не успеваем собрать деньги на оплату серверов за декабрь и январь, помогите нам пожалуйста в это трудное время. В качестве благодарности мы отключим Вам всю рекламу на сайте (укажите свой ник в строку Ваше имя)!

×
  
Magnet ссылка

Элитный отряд: Враг внутри / Elite Squad: The Enemy Within / Tropa de Elite 2 - O Inimigo Agora É Outr (Жозе Падилья / José Padilha) [2010, Бразилия, Триллер, драма, криминал, HDRip] AVO |Ю.Сербин| pb.wtf

Элитный отряд: Враг внутри через торрент pb.wtf

Размер: 745 MB | Добавлен: 4 года 5 мес. назад | Торрент скачан:20 раз
Скачать  

21-07-2016 07:44 Элитный отряд: Враг внутри Скачать торрент  

Элитный отряд: Враг внутри / Elite Squad: The Enemy Within / Tropa de Elite 2 - O Inimigo Agora É Outr
Страна: Бразилия
Жанр: триллер, драма, криминал
Год выпуска: 2010
Продолжительность: 01:54:48
Перевод: Авторский (одноголосый закадровый) |Ю.Сербин|
Cубтитры: нет
Режиссер: Жозе Падилья / José Padilha
В ролях: Вагнер Мора, Ирандир, Андре Рамиро, Мильем Кортас, Мария Рибейро, Сеу Жоржи, Сандро Роча, Таина Мюллер, Андре Маттос
Описание: Элитный отряд показал себя весьма эффективным средством борьбы с наркокартелями, перекрыв кислород организованной преступности и разгромив несколько банд. Но система коррупции устойчива и адаптируется к новым условиям...




Качество видео: HDRip |Рип BDRip 720p|
Формат видео: AVI

Видео: 592x336 (1.76:1), 23.976 fps, XviD build 50 ~770 kbps avg, 0.16 bit/pixel
Аудио: 48 kHz, MPEG Layer 3, 2 ch, ~128.00 kbps avg |Одноголосый закадровый, Ю.Сербин|

Скачать: Сэмпл
General
Complete name : C:\Users\ghdf\Desktop\Elitny_otryad_Vrag_vnytri_[scarabey.org]_by_Scarabey.avi
Format : AVI
Format/Info : Audio Video Interleave
File size : 745 MiB
Duration : 1h 54mn
Overall bit rate : 908 Kbps
Writing application : VirtualDubMod 1.5.10.2 (build 2540/release)
Writing library : VirtualDubMod build 2540/release

Video
ID : 0
Format : MPEG-4 Visual
Format profile : Advanced Simple@L5
Format settings, BVOP : 1
Format settings, QPel : No
Format settings, GMC : No warppoints
Format settings, Matrix : Custom
Codec ID : XVID
Codec ID/Hint : XviD
Duration : 1h 54mn
Bit rate : 735 Kbps
Width : 592 pixels
Height : 336 pixels
Display aspect ratio : 16:9
Frame rate : 23.976 fps
Color space : YUV
Chroma subsampling : 4:2:0
Bit depth : 8 bits
Scan type : Progressive
Compression mode : Lossy
Bits/(Pixel*Frame) : 0.154
Stream size : 603 MiB (81%)
Writing library : XviD 1.2.1 (UTC 2008-12-04)

Audio
ID : 1
Format : MPEG Audio
Format version : Version 1
Format profile : Layer 3
Codec ID : 55
Codec ID/Hint : MP3
Duration : 1h 54mn
Bit rate mode : Constant
Bit rate : 128 Kbps
Channel count : 2 channels
Sampling rate : 48.0 KHz
Compression mode : Lossy
Stream size : 105 MiB (14%)
Alignment : Aligned on interleaves
Writing library : LAME3.97
Encoding settings : -m s -V 4 -q 2 -lowpass 17 -b 128

[/code]
В переводе Юрия Сербина присутствует ненормативная лексика.pb.wtf



Скачать Элитный отряд: Враг внутри через торрент http://i33.fastpic.ru/big/2012/0329/ef/187f4db5aefd86aa77d86d111f5c6cef.png Скачать фильм Элитный отряд: Враг внутри через торрент бесплантно в хорошем качестве Описание: Элитный отряд показал себя весьма эффективным средством борьбы с наркокартелями, перекрыв кислород организованной преступности и ... 10 10 1
Торрент: Зарегистрирован [2016-07-21 07:44] · скачан: 20 раз
Статус: T временная
Размер: 745 MB
Как cкачать? Как скачать Элитный отряд: Враг внутри через торрент | UTorrent

28-11-2019 20:33  

Отключить всю рекламу на сайте

    Дорогой пользователь! Огромная просьба, поблагодарите релизера, оцените раздачу и оставьте свои комментарий, если Вы скачали Элитный отряд: Враг внутри через торрент бесплатно! Внесите свою лепту в развитие PiratBit!
    Комментировать посты могут только пользователи прошедшие не сложную регистрацию
    Показать сообщения:    

    Элитный отряд: Враг внутри через торрент
    Скачать бесплатно Элитный отряд: Враг внутри
    Элитный отряд: Враг внутри скачать торрент
    Элитный отряд: Враг внутри смотреть онлайн
    Cкачать фильм Элитный отряд: Враг внутри бесплатно
    Элитный отряд: Враг внутри скачать торрент в хорошем качестве
    Элитный отряд: Враг внутри смотреть онлайн бесплатно в хорошем качестве


    Вы не можете начинать темы
    Вы не можете отвечать на сообщения
    Вы не можете редактировать свои сообщения
    Вы не можете удалять свои сообщения
    Вы не можете голосовать в опросах
    Вы не можете прикреплять файлы к сообщениям
    Вы можете скачивать файлы