Всегда рабочее зеркало без VPN и Proxy просто перед .vidak.icu напиши любое слово или цифру, Пример http://q4zq.vidak.icu

MVO

2 сезон

1 сезон

1

1 сезон

iTunes

2 сезон

13

1 сезон

Распродажа

pack

Рекомендуем

Пиратка

30

ВАЖНО

RePack

MK11

RePack

jed

RePack

fifa19

RePack

RDR2

RePack

NEED FOR SPEED™ PAYBACK

Кинопоиск HD

6 сезон

 Острые козырьки 6 сезон

Все сериалы

все сериалы на PB.wtf

RePack

FAR CRY 5

Anonymous, нам критически не хватает 5601 руб. на оплату серверов и переферии за Апрель, помоги нам пожалуйста, вся надежда только на тебя. В благодарность мы отключим тебе всю рекламу на сайте!

×
  
Magnet ссылка

Неоспоримый 3 / Обсуждению не подлежит 3 / Undisputed III: Redemption (Айзек Флорентайн / Isaac Florentine) [2010, США, боевик, драма, криминал, HDRip] MVO pb.wtf

Неоспоримый 3 через торрент pb.wtf

Размер: 1.46 GB | Добавлен: 5 лет 10 мес. назад | Торрент скачан:142 раза
Смотреть онлайн Неоспоримый 3 | Скачать    Ребята, помогите собрать деньги на оплату серверов!!!

21-07-2016 08:37 Неоспоримый 3 Скачать торрент  

Неоспоримый 3 / Обсуждению не подлежит 3 / Undisputed III: Redemption

Страна: США
Жанр: боевик, драма, криминал
Год выпуска: 2010
Продолжительность: 01:36:02
Перевод: Профессиональный (многоголосый закадровый)
Cубтитры: нет
Режиссер: Айзек Флорентайн / Isaac Florentine

В ролях: Скотт Эдкинс, Майкл Шеннон Дженкинс, Марк Иванир, Христо Шопов, Марко Зарор, Майкл Бэрал, Илрам Чои, Роберт Костанцо, Латиф Кроудер, Эстебан Куето

Описание: Юрий Бойка — российский чемпион подпольных боев без правил, постепенно оправляющийся от полученной в последнем поединке травмы, решает вернуться на ринг. Победив в бою нынешнего чемпиона тюрьмы «Чёрные Холмы», его босс — Гага — решает отправить его на международный чемпионат тюремных поединков. Поврежденное колено дает о себе знать в каждом бою и беспокоит Бойку, но он готов пройти до конца, чтобы сразиться с колумбийским бойцом и доказать, что он неоспоримый.

Сэмпл: http://multi-up.com/635689

Качество видео: HDRip [ исх. BDRip 1080p ]
Формат видео: AVI

Видео: MPEG-4 Visual at 1787 Кбит/сек; 720 x 400 (1.800) at 23.976 fps
Аудио: AC-3 at 384 Кбит/сек; 6 каналов, 48,0 КГц
http://www.imdb.com/title/tt1156466/


Код:

General
Complete name                            : C:\Users\ghdf\Desktop\Undisputed 3.2010.HDRip.XviD.1400MB. rip by [Assassin's Creed].avi
Format                                   : AVI
Format/Info                              : Audio Video Interleave
File size                                : 1.46 GiB
Duration                                 : 1h 36mn
Overall bit rate                         : 2 180 Kbps
Writing application                      : VirtualDubMod 1.5.10.2 (build 2540/release)
Writing library                          : VirtualDubMod build 2540/release

Video
ID                                       : 0
Format                                   : MPEG-4 Visual
Format profile                           : Advanced Simple@L5
Format settings, BVOP                    : 1
Format settings, QPel                    : No
Format settings, GMC                     : No warppoints
Format settings, Matrix                  : Default (MPEG)
Codec ID                                 : XVID
Codec ID/Hint                            : XviD
Duration                                 : 1h 36mn
Bit rate                                 : 1 701 Kbps
Width                                    : 720 pixels
Height                                   : 400 pixels
Display aspect ratio                     : 16:9
Frame rate                               : 23.976 fps
Color space                              : YUV
Chroma subsampling                       : 4:2:0
Bit depth                                : 8 bits
Scan type                                : Progressive
Compression mode                         : Lossy
Bits/(Pixel*Frame)                       : 0.246
Stream size                              : 1.14 GiB (78%)
Writing library                          : XviD 1.2.1 (UTC 2008-12-04)

Audio
ID                                       : 1
Format                                   : AC-3
Format/Info                              : Audio Coding 3
Mode extension                           : CM (complete main)
Format settings, Endianness              : Big
Codec ID                                 : 2000
Duration                                 : 1h 36mn
Bit rate mode                            : Constant
Bit rate                                 : 384 Kbps
Channel count                            : 6 channels
Channel positions                        : Front: L C R, Side: L R, LFE
Sampling rate                            : 48.0 KHz
Bit depth                                : 16 bits
Compression mode                         : Lossy
Stream size                              : 264 MiB (18%)
Alignment                                : Split accross interleaves

pb.wtf



Скачать Неоспоримый 3 через торрент http://s018.radikal.ru/i517/1607/b7/123e2277de80.jpg Скачать, смотреть онлайн Неоспоримый 3 бесплантно в хорошем качестве Описание: Юрий Бойка — российский чемпион подпольных боев без правил, постепенно оправляющийся от полученной в последнем поединке травмы, ... 10 10 2
Торрент: Зарегистрирован [2016-07-21 08:37] · скачан: 142 раз
Статус: T временная
Размер: 1.46 GB
Как cкачать? Как скачать Неоспоримый 3 через торрент | UTorrent

28-11-2019 20:33  

Отключить всю рекламу на сайте

21-07-2016 10:32 Неоспоримый 3 Скачать торрент  

классный фильм. особенно русский доставляет. качать не буду - есть уже. кто не смотрел - рекомендую. 8 из десятиpb.wtf



    Дорогой пользователь! Огромная просьба, поблагодарите релизера, оцените раздачу и оставьте свои комментарий, если Вы скачали Неоспоримый 3 через торрент бесплатно!
    Комментировать посты могут только пользователи прошедшие не сложную регистрацию
    Показать сообщения:    

    Неоспоримый 3 через торрент
    Скачать бесплатно Неоспоримый 3
    Неоспоримый 3 скачать торрент
    Неоспоримый 3 смотреть онлайн
    Cкачать фильм Неоспоримый 3 бесплатно
    Неоспоримый 3 скачать торрент в хорошем качестве
    Неоспоримый 3 смотреть онлайн бесплатно в хорошем качестве


    Вы не можете начинать темы
    Вы не можете отвечать на сообщения
    Вы не можете редактировать свои сообщения
    Вы не можете удалять свои сообщения
    Вы не можете голосовать в опросах
    Вы не можете прикреплять файлы к сообщениям
    Вы можете скачивать файлы