Всегда рабочее зеркало без VPN и Proxy просто перед .vidak.icu напиши любое слово или цифру, Пример http://875a.vidak.icu

MVO

2 сезон

2 сезон

1

1 сезон

iTunes

2 сезон

13

1 сезон

Распродажа

pack

Рекомендуем

Пиратка

30

ВАЖНО

RePack

MK11

RePack

jed

RePack

fifa19

RePack

RDR2

RePack

NEED FOR SPEED™ PAYBACK

Кинопоиск HD

6 сезон

 Острые козырьки 6 сезон

Все сериалы

все сериалы на PB.wtf

RePack

FAR CRY 5

Anonymous, нам критически не хватает 5601 руб. на оплату серверов и переферии за Апрель, помоги нам пожалуйста, вся надежда только на тебя. В благодарность мы отключим тебе всю рекламу на сайте!

×
  
Magnet ссылка

13 / Тринадцать / Тринадцатый / 13 (Гела Баблуани / Géla Babluani) [2010, США, триллер, драма, HDRip] AVO (Гаврилов) pb.wtf

13 через торрент pb.wtf

Размер: 1.38 GB | Добавлен: 5 лет 9 мес. назад | Торрент скачан:51 раз
Смотреть онлайн 13 | Скачать    Ребята, помогите собрать деньги на оплату серверов!!!

21-07-2016 09:18 13 Скачать торрент  

13 / Тринадцать / Тринадцатый / 13 Страна: США
Жанр: триллер, драма
Год выпуска: 2010
Продолжительность: 01:30:19

Перевод: Авторский (одноголосый закадровый) Андрей Гаврилов
Cубтитры: нет

Режиссер: Гела Баблуани / Géla Babluani

В ролях: Джейсон Стэтхэм, Микки Рурк, Александр Скарсгард, Эммануэль Шрики, Майкл Шеннон, Дэвид Зайас, Гэби Хоффманн, Фифти Сент, Рэй Уинстон, Наташа Лионни

Описание: Молодой парень по имени Винс случайно узнает быстрый способ разбогатеть. И, сам того не подозревая, ввязывается в смертельно опасную игру — русскую рулетку. Подпольный тотализатор, мир власти, денег и насилия, где люди убивают людей. В этой игре Винсу выпадает «счастливый» тринадцатый номер. Курок его револьвера уже взведен. С каждым выстрелом все меньше шансов выжить, и все больше хочется жить… Но даже если убьешь ты, это еще не значит, что ты останешься жив.



Качество видео: HDRip
Формат видео: AVI
Видео кодек: XviD
Аудио кодек: AC3

Видео: 720x304 (2.37:1), 23.976 fps, XviD build 73 ~1729 kbps avg, 0.33 bit/pixel
Аудио: 48 kHz, AC3 Dolby Digital, 3/2 (L,C,R,l,r) + LFE ch, ~448 kbps
За дорогу Гаврилова спасибо djamb и gross_1978
Полное имя : 13 2010.avi
Формат : AVI
Формат/Информация : Audio Video Interleave
Размер файла : 1,38 Гбайт
Продолжительность : 1 ч. 30 м.
Общий поток : 2187 Кбит/сек
Программа кодирования : VirtualDubMod 1.5.10.2 (build 2540/release)
Библиотека кодирования : VirtualDubMod build 2540/release

Видео
Идентификатор : 0
Формат : MPEG-4 Visual
Профиль формата : Advanced Simple@L5
Параметр BVOP формата : 1
Параметр QPel формата : Нет
Параметр GMC формата : Без точки перехода
Параметр матрицы формата : Выборочная
Идентификатор кодека : XVID
Идентификатор кодека/Подсказка : XviD
Продолжительность : 1 ч. 30 м.
Битрейт : 1730 Кбит/сек
Ширина : 720 пикселей
Высота : 304 пикселя
Соотношение сторон : 2,35:1
Частота кадров : 23,976 кадра/сек
Цветовое пространство : YUV
Субдискретизация насыщенности : 4:2:0
Битовая глубина : 8 бит
Тип развёртки : Прогрессивная
Метод сжатия : С потерями
Бит/(Пиксели*Кадры) : 0.330
Размер потока : 1,09 Гбайт (79%)
Библиотека кодирования : XviD 73

Аудио
Идентификатор : 1
Формат : AC-3
Формат/Информация : Audio Coding 3
Расширение режима : CM (complete main)
Параметр Endianness формата : Big
Идентификатор кодека : 2000
Продолжительность : 1 ч. 30 м.
Вид битрейта : Постоянный
Битрейт : 448 Кбит/сек
Каналы : 6 каналов
Расположение каналов : Front: L C R, Side: L R, LFE
Частота : 48,0 КГц
Битовая глубина : 16 бит
Метод сжатия : С потерями
Размер потока : 289 Мбайт (20%)
Выравнивание : Разделение по промежуткам
Продолжительность промежутка : 42 мс. (1,00 видеокадр)
Время предзагрузки промежутка : 500 мс.
скриншот  скриншот  скриншот  скриншот  скриншот  
pb.wtf



Скачать 13 через торрент http://i65.fastpic.ru/big/2015/0316/1a/9fb6d8380a595e0b1c31c4f923dcb71a.jpg Скачать, смотреть онлайн 13 бесплантно в хорошем качестве Описание: Молодой парень по имени Винс случайно узнает быстрый способ разбогатеть. И, сам того не подозревая, ввязывается в смертельно ... 6 10 1
Торрент: Зарегистрирован [2016-07-21 09:18] · скачан: 51 раз
Статус: T временная
Размер: 1.38 GB
Как cкачать? Как скачать 13 через торрент | UTorrent

28-11-2019 20:33  

Отключить всю рекламу на сайте

    Дорогой пользователь! Огромная просьба, поблагодарите релизера, оцените раздачу и оставьте свои комментарий, если Вы скачали 13 через торрент бесплатно!
    Комментировать посты могут только пользователи прошедшие не сложную регистрацию
    Показать сообщения:    

    13 через торрент
    Скачать бесплатно 13
    13 скачать торрент
    13 смотреть онлайн
    Cкачать фильм 13 бесплатно
    13 скачать торрент в хорошем качестве
    13 смотреть онлайн бесплатно в хорошем качестве


    Вы не можете начинать темы
    Вы не можете отвечать на сообщения
    Вы не можете редактировать свои сообщения
    Вы не можете удалять свои сообщения
    Вы не можете голосовать в опросах
    Вы не можете прикреплять файлы к сообщениям
    Вы можете скачивать файлы