Всегда рабочее зеркало без VPN и Proxy просто перед .vidak.icu напиши любое слово или цифру, Пример http://49fi.vidak.icu

MVO

2 сезон

2 сезон

1

1 сезон

iTunes

2 сезон

13

1 сезон

Распродажа

pack

Рекомендуем

Пиратка

30

ВАЖНО

RePack

MK11

RePack

jed

RePack

fifa19

RePack

RDR2

RePack

NEED FOR SPEED™ PAYBACK

Кинопоиск HD

6 сезон

 Острые козырьки 6 сезон

Все сериалы

все сериалы на PB.wtf

RePack

FAR CRY 5

Anonymous, нам критически не хватает 5601 руб. на оплату серверов и переферии за Апрель, помоги нам пожалуйста, вся надежда только на тебя. В благодарность мы отключим тебе всю рекламу на сайте!

×
  
Magnet ссылка

Техасская резня бензопилой / The Texas Chainsaw Massacre (Маркус Ниспел / Marcus Nispel) [2003, США, ужасы, BDRip] [UK transfer] Dub pb.wtf

Техасская резня бензопилой через торрент pb.wtf

Размер: 1.45 GB | Добавлен: 5 лет 9 мес. назад | Торрент скачан:41 раз
Смотреть онлайн Техасская резня бензопилой | Скачать    Ребята, помогите собрать деньги на оплату серверов!!!

21-07-2016 10:27 Техасская резня бензопилой Скачать торрент  

Техасская резня бензопилой / The Texas Chainsaw Massacre

Страна: США
Жанр: ужасы
Год выпуска: 2003
Продолжительность: 01:38:16

Перевод: Профессиональный (дублированный)
Cубтитры: нет

Режиссер: Маркус Ниспел / Marcus Nispel

В ролях: Джессика Бил, Джонатан Такер, Эрика Лирсен, Майк Фогель, Эрик Бальфур, Р. Ли Эрми, Дэвид Дорфман

Описание: В штате Техас на ферме обычного работника скотобойни Томаса Хьюитта полиция обнаружила 33 изувеченных человеческих тела. Ужасающее открытие шокировало людей, и было названо самым жутким массовым убийством за все время. Газеты писали: «Дом террора национального масштаба. Бойня в Техасе». Пресса окрестила убийцу как «Человек с лицом из кожи».

Местные власти застрелили человека, носившего на лице кожаную маску. Дело было закрыто. Но в последующие годы, множество убийств показало, что полиция нашла не того преступника. Случайно уцелевший свидетель рассказал настоящую историю того, что на самом деле произошло на заброшенном техасском шоссе, когда пятеро подростков оказались в ловушке у безумного человека с бензопилой…


Доп. информация:
http://www.imdb.com/title/tt0324216/
Качество видео: BDRip | spartanec163/1080p BD-Remux
Формат видео: AVI

Видео: 720x400 (1.80:1), 23.976 fps, XviD build 73 ~1661 kbps avg, 0.24 bit/pixel
Аудио: 48 kHz, AC3 Dolby Digital, 3/2 (L,C,R,l,r) + LFE ch, ~448 kbps
Общее
Полное имя : C:\Documents and Settings\Пользователь\Рабочий стол\Торрентс.ру\The.Texas.Chainsaw.Massacre.2003.BDRip.Dub.avi
Формат : AVI
Формат/Информация : Audio Video Interleave
Размер файла : 1,45 Гбайт
Продолжительность : 1 ч. 38 м.
Общий поток : 2119 Кбит/сек
Режиссёр : Last Boy Scout
Программа кодирования : VirtualDubMod 1.5.10.3 | www.virtualdub-fr.org || (build 2550/release)
Примечание : BDRip Dub

Видео
Идентификатор : 0
Формат : MPEG-4 Visual
Профиль формата : Advanced Simple@L5
Параметр BVOP формата : 1
Параметр QPel формата : Нет
Параметр GMC формата : Без точки перехода
Параметр матрицы формата : Выборочная
Идентификатор кодека : XVID
Идентификатор кодека/Подсказка : XviD
Продолжительность : 1 ч. 38 м.
Битрейт : 1662 Кбит/сек
Ширина : 720 пикселей
Высота : 400 пикселей
Соотношение сторон : 16:9
Частота кадров : 23,976 кадра/сек
Цветовое пространство : YUV
Субдискретизация насыщенности : 4:2:0
Битовая глубина : 8 бит
Тип развёртки : Прогрессивная
Метод сжатия : С потерями
Бит/(Пиксели*Кадры) : 0.241
Размер потока : 1,14 Гбайт (78%)
Библиотека кодирования : XviD 73

Аудио
Идентификатор : 1
Формат : AC-3
Формат/Информация : Audio Coding 3
Расширение режима : CM (complete main)
Параметр Endianness формата : Big
Идентификатор кодека : 2000
Продолжительность : 1 ч. 38 м.
Вид битрейта : Постоянный
Битрейт : 448 Кбит/сек
Каналы : 6 каналов
Расположение каналов : Front: L C R, Side: L R, LFE
Частота : 48,0 КГц
Битовая глубина : 16 бит
Метод сжатия : С потерями
Размер потока : 315 Мбайт (21%)
Выравнивание : Разделение по промежуткам
Продолжительность промежутка : 42 мс. (1,00 видеокадр)
Время предзагрузки промежутка : 500 мс.
pb.wtf



Скачать Техасская резня бензопилой через торрент http://i58.fastpic.ru/big/2013/1119/f7/4713df5be9812e0d365d2e989cd9b6f7.jpg Скачать, смотреть онлайн Техасская резня бензопилой бесплантно в хорошем качестве Описание: В штате Техас на ферме обычного работника скотобойни Томаса Хьюитта полиция обнаружила 33 изувеченных человеческих тела. ... 5 10 1
Торрент: Зарегистрирован [2016-07-21 10:27] · скачан: 41 раз
Статус: T временная
Размер: 1.45 GB
Как cкачать? Как скачать Техасская резня бензопилой через торрент | UTorrent

% Раздел Тема Автор DL S | L
Фильмы (WEB-DL 720p, 1080p) [ 4.6 GB ] Техасская резня бензопилой / The Texas Chainsaw Massacre [2022 WEB-DL-HEVC 1080p] DUB [Невафильм / Netflix] bober100 Скачать
2 | 0
Фильмы 2022 [DVDrip, WEB-DLRip, HDrip] (DUB, MVO) [ 1.45 GB ] Техасская резня бензопилой / The Texas Chainsaw Massacre [2022 WEB-DLRip-AVC] DUB [Невафильм / Netflix] bober100 Скачать
8 | 0
Фильмы 2022 [DVDrip, WEB-DLRip, HDrip] (DUB, MVO) [ 745 MB ] Техасская резня бензопилой / The Texas Chainsaw Massacre [2022 WEB-DLRip] DUB [Невафильм / Netflix] bober100 Скачать
1 | 0
Фильмы 2022 [DVDrip, WEB-DLRip, HDrip] (DUB, MVO) [ 1.77 GB ] Техасская резня бензопилой / The Texas Chainsaw Massacre [2022 WEB-DLRip-AVC] DUB [Netflix] от ExKinoRay Lithuania Скачать
3 | 0
Фильмы (WEB-DL 720p, 1080p) [ 4.89 GB ] Техасская резня бензопилой / The Texas Chainsaw Massacre [2022 WEB-DL 1080p] DUB [Невафильм / Netflix] bober100 Скачать
13 | 0
Фильмы 2022 [DVDrip, WEB-DLRip, HDrip] (DUB, MVO) [ 1.46 GB ] Техасская резня бензопилой / The Texas Chainsaw Massacre [2022 WEB-DLRip] DUB [Невафильм / Netflix] bober100 Скачать
4 | 0
Фильмы [HD 720p, 1080p] (Хороший звук DUB, MVO) [ 13.1 GB ] Техасская резня бензопилой / The Texas Chainsaw Massacre [2003 BDRip 1080p by msltel] DUB 2 x DVO 2 x AVO msltel Скачать
1 | 1

28-11-2019 20:33  

Отключить всю рекламу на сайте

    Дорогой пользователь! Огромная просьба, поблагодарите релизера, оцените раздачу и оставьте свои комментарий, если Вы скачали Техасская резня бензопилой через торрент бесплатно!
    Комментировать посты могут только пользователи прошедшие не сложную регистрацию
    Показать сообщения:    

    Техасская резня бензопилой через торрент
    Скачать бесплатно Техасская резня бензопилой
    Техасская резня бензопилой скачать торрент
    Техасская резня бензопилой смотреть онлайн
    Cкачать фильм Техасская резня бензопилой бесплатно
    Техасская резня бензопилой скачать торрент в хорошем качестве
    Техасская резня бензопилой смотреть онлайн бесплатно в хорошем качестве


    Вы не можете начинать темы
    Вы не можете отвечать на сообщения
    Вы не можете редактировать свои сообщения
    Вы не можете удалять свои сообщения
    Вы не можете голосовать в опросах
    Вы не можете прикреплять файлы к сообщениям
    Вы можете скачивать файлы