Ссылка на приватное зеркало всего за 1$. Внимание количество ограничено!!!

iTunes

iTunes

iTunes

1

iTunes

iTunes

iTunes

iTunes

iTunes

30
pack

$ от Little Big

ВАЖНО

!!Акция!!

Alien_RageХит недели

RePack

Resident Evil 21

ИГРА 18+

pack

RePack

jed

!!Акция!!

Alien_Rage

RePack

fifa19

RePack

Assassins Creed: Odyssey

RePack

NEED FOR SPEED™ PAYBACK

4 сезон

9 сезон

Бесстыжие 9 сезон

Все сериалы

все сериалы на PB.wtf

RePack

FAR CRY 5
  

Мистериум. Тьма в бутылке / Flaskepost fra P (Ганс Петтер Моланд ) [2016, триллер, драма, WEB-DL 1080p] Любительский многоголосый [СПД] pb.wtf

Мистериум. Тьма в бутылке через торрент pb.wtf

Размер: 3.58 GB | Добавлен: 3 года 11 мес. назад | Торрент скачан:254 раза
Скачать  

22-07-2016 08:12 Мистериум. Тьма в бутылке Скачать торрент  

Мистериум. Тьма в бутылке / Flaskepost fra P
Год выпуска: 2016
Страна: Дания, Германия, Швеция, Норвегия
Жанр: триллер, драма

Продолжительность: 01:51:45
Перевод: Любительский многоголосый [Студия Пиратского Дубляжа]
Примечание: присутствует реклама!
Режиссер: Ганс Петтер Моланд
В ролях: Николай Ли Каас (Carl Mørck), Фарес Фарес (Assad), Пол Сверре Валхейм Хаген (Johannes), Якоб Ульрик Ломанн (Elias), Amanda Collin (Rakel), Джохэнн Луиз Шмидт (Rose Knudsen), Якоб Офтебро (Pasgård), Сигне Анастассиа Маннов (Lisa), Сёрен Пильмарк (Marcus Jacobsen), Михаэль Броструп (Børge Bak), Мортен Кирксков (Lars Bjørn), Olivia Terpet Gammelgaard (Magdalena)
Описание:
Выброшенная на берег моря бутылка с леденящим душу посланием, написанным восемь лет назад, привлекает внимание особого отдела полиции Копенгагена. За расследование берутся комиссар Карл Мёрк и его помощник. Они выходят на след убийцы-психопата и раскрывают жуткую историю похищенных детей, об исчезновении которых никто не заявлял…
Рейтинг:


Качество: WEB-DL 1080p
Формат: MKV
Видео кодек: AVC
Аудио кодек: AC3
Видео: AVC, 1920x808 (2.40:1), 4107 kbps, 24 fps, 0,110 bpp
Аудио: AC3 / 2.0 / 48 kHz / 384 kbps / 16 bit

Код:

General
Unique ID                                : 205198232458273690050671408068718322135 (0x9A5FBDF6823165939E6BBCB3491161D7)
Complete name                            : E:\Tma.V.ButiLKe.2O16.P.WEB-DL.1O8OP.mkv
Format                                   : Matroska
Format version                           : Version 2
File size                                : 3.58 GiB
Duration                                 : 1h 51mn
Overall bit rate mode                    : Constant
Overall bit rate                         : 4 583 Kbps
Encoded date                             : UTC 2016-07-21 20:48:51
Writing application                      : mkvmerge v8.3.0 ('Over the Horizon') 64bit
Writing library                          : libebml v1.3.1 + libmatroska v1.4.2

Video
ID                                       : 1
Format                                   : AVC
Format/Info                              : Advanced Video Codec
Format profile                           : High@L4.1
Format settings, CABAC                   : Yes
Format settings, ReFrames                : 5 frames
Codec ID                                 : V_MPEG4/ISO/AVC
Duration                                 : 1h 51mn
Bit rate mode                            : Constant
Bit rate                                 : 4 108 Kbps
Nominal bit rate                         : 4 500 Kbps
Width                                    : 1 920 pixels
Height                                   : 808 pixels
Display aspect ratio                     : 2.40:1
Frame rate                               : 24.000 fps
Standard                                 : Component
Color space                              : YUV
Chroma subsampling                       : 4:2:0
Bit depth                                : 8 bits
Scan type                                : Progressive
Bits/(Pixel*Frame)                       : 0.110
Stream size                              : 3.21 GiB (90%)
Default                                  : Yes
Forced                                   : No
Color primaries                          : BT.709-5, BT.1361, IEC 61966-2-4, SMPTE RP177
Transfer characteristics                 : BT.709-5, BT.1361
Matrix coefficients                      : BT.709-5, BT.1361, IEC 61966-2-4 709, SMPTE RP177

Audio
ID                                       : 2
Format                                   : AC-3
Format/Info                              : Audio Coding 3
Mode extension                           : CM (complete main)
Codec ID                                 : A_AC3
Duration                                 : 1h 51mn
Bit rate mode                            : Constant
Bit rate                                 : 384 Kbps
Channel(s)                               : 2 channels
Channel positions                        : Front: L R
Sampling rate                            : 48.0 KHz
Bit depth                                : 16 bits
Compression mode                         : Lossy
Stream size                              : 307 MiB (8%)
Default                                  : Yes
Forced                                   : No

pb.wtf



Скачать Мистериум. Тьма в бутылке через торрент http://i2.imageban.ru/out/2016/07/22/3615843bc81e54242c22dcd7f89611c8.jpg Скачать фильм Мистериум. Тьма в бутылке через торрент бесплантно в хорошем качестве Описание: Выброшенная на берег моря бутылка с леденящим душу посланием, написанным восемь лет назад, привлекает внимание особого отдела ... 10 10 4
Торрент: Зарегистрирован [2016-07-22 08:12] · скачан: 254 раз
Статус: T временная
Размер: 3.58 GB
Как cкачать? Как скачать Мистериум. Тьма в бутылке через торрент | qTorrent

% Раздел Тема Автор DL S | L
Релизы по Парсеру [Игры, Сериалы и Фильмы и другое...] [ 7.96 GB ] Мистериум. Тьма в бутылке / Flaskepost fra P [2016 BDRip 1080p] MVO GreenРай Studio DEVI Скачать
1 | 0
Фильмы с авторской озвучкой [ 2.03 GB ] Мистериум. Тьма в бутылке / Flaskepost fra P [2016 HDRip Авторский одноголосый "Ю.Немахов"] coc900 Скачать
1 | 0
T Фильмы 2016 [DVDrip, WEB-DLRip, HDrip] (DUB, MVO) [ 1.41 GB ] Мистериум. Тьма в бутылке / Flaskepost fra P [2016 экранизация BDRip] Любительский [GreenРай Studio] Twi7ter Скачать
1 | 0
T Фильмы [HD 720p, 1080p] (Хороший звук DUB, MVO) [ 4.86 GB ] Мистериум. Тьма в бутылке / Flaskepost fra P [2016 BDRip 720p MVO] smaster Скачать
1 | 0
T Фильмы (Blu-ray, BD-Remux, HDDVD) [ 20.38 GB ] Мистериум. Тьма в бутылке / Flaskepost fra P [2016 BDRemux 1080p] MVO Russian Mafia Скачать
1 | 0
T Фильмы 2016 [DVDrip, WEB-DLRip, HDrip] (DUB, MVO) [ 1.46 GB ] Мистериум. Тьма в бутылке / Flaskepost fra P [2016 экранизация HDRip] / Любительский [GreenРай Studio] Sherif Скачать
1 | 0
T Фильмы 2016 [DVDrip, WEB-DLRip, HDrip] (DUB, MVO) [ 1.46 GB ] Мистериум. Тьма в бутылке / Flaskepost fra P [2016 WEB-DLRip Любительский ] СПД sanekbest1 Скачать
1 | 1

28-11-2019 20:33  

Отключить всю рекламу на сайте

22-07-2016 13:49 Мистериум. Тьма в бутылке Скачать торрент  

axelutsk, учитывая, что это ваша первая раздача на нашем трекере, оформление поправил.
Ознакомьтесь пожалуйста с Правилами оформления раздач в разделе "Фильмов".
Для оформления раздач рекомендую пользоваться программой Flash Release, скачать можно здесь: Flash Release - программа для автоматизации создания релизов (фильмов, музыки)
Удачных релизов!pb.wtf



    Дорогой пользователь! Огромная просьба, поблагодарите релизера, оцените раздачу и оставьте свои комментарий, если Вы скачали Мистериум. Тьма в бутылке через торрент бесплатно! Внесите свою лепту в развитие PiratBit!
    Комментировать посты могут только пользователи прошедшие не сложную регистрацию
    Показать сообщения:    

    Мистериум. Тьма в бутылке через торрент
    Скачать бесплатно Мистериум. Тьма в бутылке
    Мистериум. Тьма в бутылке скачать торрент
    Мистериум. Тьма в бутылке смотреть онлайн
    Cкачать фильм Мистериум. Тьма в бутылке бесплатно
    Мистериум. Тьма в бутылке скачать торрент в хорошем качестве
    Мистериум. Тьма в бутылке смотреть онлайн бесплатно в хорошем качестве


    Вы не можете начинать темы
    Вы не можете отвечать на сообщения
    Вы не можете редактировать свои сообщения
    Вы не можете удалять свои сообщения
    Вы не можете голосовать в опросах
    Вы не можете прикреплять файлы к сообщениям
    Вы можете скачивать файлы