Ссылка на приватное зеркало нашего сайта всего за 1$. Внимание количество ограничено!!!

2 сезон

iTunes

1 сезон

1

iTunes

iTunes

iTunes

1 сезон

RePack

30

ИГРА 18+

pack

ВАЖНО

!!Акция!!

Alien_RageХит недели

RePack

MK11
pack

Забери бонус

RePack

jed

!!Акция!!

Alien_Rage

RePack

fifa19

RePack

Assassins Creed: Odyssey

RePack

NEED FOR SPEED™ PAYBACK

4 сезон

9 сезон

Бесстыжие 9 сезон

Все сериалы

все сериалы на PB.wtf

RePack

FAR CRY 5
  

Группа Zeta-2 / Серии: 1-8 из 8 ( Виктор Татарский) [2009, боевик,криминал, SATRip-AVC] pb.wtf

Группа Zeta-2 через торрент pb.wtf

Размер: 4.16 GB | Добавлен: 4 года 3 мес. назад | Торрент скачан:129 раз
Скачать  

22-07-2016 11:59 Группа Zeta-2 Скачать торрент  

Группа Zeta-2




Год выпуска: 2009
Производство: Россия, «Intra Communications"
Жанр: боевик,криминал
Продолжительность: 00:44:00
Субтитры: нет




Режиссёр: Виктор Татарский




В ролях: Олег Штефанко, Алексей Жарков, Ярослав Бойко, Сергей Чудаков, Олег Абалян, Евгения Игумнова, Андрей Ургант, Андрей Зибров, Андрей Смелов, Михаил Евланов, Юлия Джербинова, Сергей Гамов, Александр Большаков, Игорь Добряков, Константин Воробьёв, Игорь Сергеев, Екатерина Старателева, Анатолий Узденский, Фёдор Лавров, Сергей Волкош, Аркадий Коваль, Мурат Кукан, Сергей Барковский, Игорь Шибанов, Юлия Яковлева, Сергей Мосьпан, Александр Трошин, Марианна Коробейникова, Рафаил Эйвазов, Вячеслав Вавилов, Сергей Леонов, Николай Данилов, Олег Ефимов , Эрик Кения, Андрей Благословенский, Ольга Белявская, Михаил Долгинин.



Описание
: Пережив немало драматических испытаний, Алексей Тимофеев возвращается в родной город, где его ждёт любимая женщина. Но, к сожалению, этот счастливый период оказывается недолгим. Вскоре судьба вновь вовлекает Алексея в остросюжетный водоворот событий.
Спецслужбы выходят на его след и отправляют в тюрьму за незаконную деятельность Группы Zета, которую он возглавлял. Там же оказывается его боевой друг и соратник Косенко. На зоне царят свои жестокие порядки, с которыми Тимофеев не может смириться. Он узнаёт, что уголовному авторитету Магадану с воли поступает команда расправиться с заключённым Магомедом Межоевым, который осужден за террористическую деятельность на Северном Кавказе. Несмотря на то, что в Чечне он и Межоев воевали по разные линии фронта, Алексей делает всё возможное, чтобы предотвратить расправу. Теперь ему самому грозит смертельная опасность со стороны уголовников. Единственный выход-побег из зоны.









Релиз от:



Качество: SATRip-AVC
Формат: MKV
Видео кодек: H.264
Аудио кодек: AC3
Видео: MPEG-4 AVC, 720х400,25fps,~1500 Кбит/сек,Bits/Pixel 0.208
Аудио: AC3, 48 kHz, ~192 Kbps, 2 канала



Общее
Уникальный идентификатор : 250135761340619222775335189758303112107 (0xBC2E6531E8AF58FFA230097CA57D8BAB)
Полное имя : H:\Группа Zeta-2\01 серия_Группа Zeta-2_rip by_Aleksan55.mkv
Формат : Matroska
Версия формата : Version 2
Размер файла : 536 Мбайт
Продолжительность : 44 м.
Общий поток : 1694 Кбит/сек
Дата кодирования : UTC 2016-07-20 18:40:25
Программа кодирования : mkvmerge v7.8.0 ('River Man') 32bit built on Apr 3 2015 12:11:22
Библиотека кодирования : libebml v1.3.1 + libmatroska v1.4.2

Видео
Идентификатор : 1
Формат : AVC
Формат/Информация : Advanced Video Codec
Профиль формата : High@L4.1
Параметр CABAC формата : Да
Параметр ReFrames формата : 12 кадров
Идентификатор кодека : V_MPEG4/ISO/AVC
Продолжительность : 44 м.
Битрейт : 1500 Кбит/сек
Ширина : 720 пикселей
Высота : 400 пикселей
Соотношение сторон : 16:9
Режим частоты кадров : Постоянный
Частота кадров : 25,000 кадров/сек
Цветовое пространство : YUV
Субдискретизация насыщенности : 4:2:0
Битовая глубина : 8 бит
Тип развёртки : Прогрессивная
Бит/(Пиксели*Кадры) : 0.208
Размер потока : 465 Мбайт (87%)
Библиотека кодирования : x264 core 146 r2538 121396c
Настройки программы : cabac=1 / ref=12 / deblock=1:-2:-3 / analyse=0x3:0x113 / me=umh / subme=9 / psy=1 / psy_rd=1.00:0.25 / mixed_ref=0 / me_range=32 / chroma_me=1 / trellis=2 / 8x8dct=1 / cqm=0 / deadzone=21,11 / fast_pskip=1 / chroma_qp_offset=-4 / threads=2 / lookahead_threads=3 / sliced_threads=0 / nr=0 / decimate=1 / interlaced=0 / bluray_compat=0 / constrained_intra=0 / bframes=12 / b_pyramid=2 / b_adapt=1 / b_bias=0 / direct=3 / weightb=1 / open_gop=0 / weightp=2 / keyint=250 / keyint_min=25 / scenecut=40 / intra_refresh=0 / rc_lookahead=40 / rc=2pass / mbtree=1 / bitrate=1500 / ratetol=1.0 / qcomp=0.60 / qpmin=0 / qpmax=69 / qpstep=4 / cplxblur=20.0 / qblur=0.5 / ip_ratio=1.40 / aq=1:1.20
Default : Да
Forced : Нет
Цветовой диапазон : Limited
Основные цвета : BT.601 PAL
Характеристики трансфера : BT.470 System B, BT.470 System G
Коэффициенты матрицы : BT.601

Аудио
Идентификатор : 2
Формат : AC-3
Формат/Информация : Audio Coding 3
Расширение режима : CM (complete main)
Параметр Endianness формата : Big
Идентификатор кодека : A_AC3
Продолжительность : 44 м.
Вид битрейта : Постоянный
Битрейт : 192 Кбит/сек
Каналы : 2 канала
Расположение каналов : Front: L R
Частота : 48,0 КГц
Метод сжатия : С потерями
Размер потока : 60,8 Мбайт (11%)
Default : Да
Forced : Нет


Рекламы нет.pb.wtf



Скачать Группа Zeta-2 через торрент http://s019.radikal.ru/i605/1607/5a/f8b6c2b2625f.jpg Скачать фильм Группа Zeta-2 через торрент бесплантно в хорошем качестве Описание: Пережив немало драматических испытаний, Алексей Тимофеев возвращается в родной город, где его ждёт любимая женщина. Но, к ... 9.5 10 2
Торрент: Зарегистрирован [2016-07-22 11:59] · скачан: 129 раз
Статус: √ проверено
Размер: 4.16 GB
Как cкачать? Как скачать Группа Zeta-2 через торрент | qTorrent

28-11-2019 20:33  

Отключить всю рекламу на сайте

    Дорогой пользователь! Огромная просьба, поблагодарите релизера, оцените раздачу и оставьте свои комментарий, если Вы скачали Группа Zeta-2 через торрент бесплатно! Внесите свою лепту в развитие PiratBit!
    Комментировать посты могут только пользователи прошедшие не сложную регистрацию
    Показать сообщения:    

    Группа Zeta-2 через торрент
    Скачать бесплатно Группа Zeta-2
    Группа Zeta-2 скачать торрент
    Группа Zeta-2 смотреть онлайн
    Cкачать фильм Группа Zeta-2 бесплатно
    Группа Zeta-2 скачать торрент в хорошем качестве
    Группа Zeta-2 смотреть онлайн бесплатно в хорошем качестве


    Вы не можете начинать темы
    Вы не можете отвечать на сообщения
    Вы не можете редактировать свои сообщения
    Вы не можете удалять свои сообщения
    Вы не можете голосовать в опросах
    Вы не можете прикреплять файлы к сообщениям
    Вы можете скачивать файлы