Присоединяйтесь к нам в Telegram!, здесь всегда актуальный адрес сайта, оперативная поддержка и многое другое!!

>

5.9

iTunes

7.4

iTunes

9.4

1 сезон

1

7.4

2 сезон

7.2

iTunes

7.3

1 сезон

13

6.1

iTunes

8.3

GOG

30

ULTIMATE

pack

9.9

Лицензия

ВАЖНО

ИГРА 18+

pack

7.3

RePack

MK11

7.7

RePack

jed

7.8

RePack

fifa19

8.5

RePack

RDR2

RePack

NEED FOR SPEED™ PAYBACK

5 сезон

9 сезон

Бесстыжие 9 сезон

Все сериалы

все сериалы на PB.wtf

RePack

FAR CRY 5

Anonymous, доброе утро, мы катастрофически не успеваем собрать деньги на оплату серверов, помогите нам пожалуйста 5,10,15р., для нас важна любая помощь . В качестве благодарности мы отключим Вам всю рекламу на сайте (укажите свой ник в строку Ваше имя)!

×
  
Magnet ссылка

Прекрасные девушки в душе / Beautiful Girl's Shower [2016 г., Adult erotic music clips, WEBRip] pb.wtf

Прекрасные девушки в душе через торрент pb.wtf

Размер: 3.45 GB | Добавлен: 5 лет 4 мес. назад | Торрент скачан:401 раз
Смотреть онлайн Прекрасные девушки в душе | Скачать    Ребята, помогите собрать деньги на оплату серверов!!!

22-07-2016 12:13 Прекрасные девушки в душе Скачать торрент  

Прекрасные девушки в душе / Beautiful Girl's Shower
Год выпуска: 2016
Страна: All World
Жанр: Adult erotic music clips
Продолжительность: 03:04:53

Описание: Красивые девушки в ванной, душе...

Чёткие линии обнажённого тела...
Манящая к себе сексуальностью грудь...
Капли воды стекают, так чтобы робела...
Лишь она знает каждую родинку наизусть...
Нагая в ванной ты сидишь,
Вода из крана тихо льётся,
Пар над тобою нежно вьётся
И никуда ты не спешишь....

Качество: WEBRip
Формат: MP4
Аудио кодек: AAC
Видео: AVC, 1280x720 (16:9), 25.000 fps, 2 509 Kbps (0.109 bit/pixel)
Аудио#1: AAC LC, 44.1 KHz, 2 ch, 157 Kbps, VBR
01. Girl on Fire
02. Nude Masha
03. Abby Gets Wet
04. Abby after her Shower
05. Natasha Dedov - Shower
06. Chance Jones - Bathtime
07. Malisha - Shower Massage
08. Demi Shower
09. Art - Lisena
10. Sabrina Nichole - Juicy
11. Bath Party
12. Monea - H2O
13. Kinorrism Creative - Bubble Bath
14. Amnezia - The Shower
15. Beautiful Shower
16. Master - Nica
17. ObsCure Babes 6
18. Self Pleasure art
19. AnnaS - Shower Time
20. Ena's Bath
21. Witch Girl
22. Dreadlock Girl takes a shower
23. Backstage erotic calendar
24. Kari Lopez New Year Shower
25. Demi Fray - 22 pm
26. Demi Fray 2 - 23 pm
27. Bathroom Teaser
28. Lizy Ross
29. Sabrina Nichole - Lathered Up
30. In the Shower
31. Dakini - Home Alone
32. BlaBla Double Shower
33. Luna Star - Sexy Bubble Bath
34. Uninhibited Model Emmy shower
35. The Power of Water - Shower and Baking Soda Cleansing
36. Buddy Holly - Everyday Shower
37. Shower
38. Nude fashion model dancing
39. Micro Bikini Outdoor Shower
40. Teffy White - Heating up the shower
41. Irene Silver - Burning Desire
42. Vense - Showerbaby
43. Life Therapy - Mornings
44. Steve Fox - That's Some Tasty Vodka
45. Three Beautiful Girls big booty having shower and playing
скриншот   скриншот   скриншот   скриншот   скриншот   скриншот  
скриншот   скриншот   скриншот   скриншот   скриншот   скриншот  

Общее
Полное имя : C:\Раздача\Клипы\Beautiful Girl's Shower (2016)\01. Girl on Fire.mp4
Формат : MPEG-4
Профиль формата : Base Media
Идентификатор кодека : isom (isom/avc1)
Размер файла : 33,7 Мбайт
Продолжительность : 1 м. 45 с.
Режим общего битрейта : Переменный
Общий поток : 2670 Кбит/сек
Дата кодирования : UTC 2012-01-15 09:38:30
Дата пометки : UTC 2012-01-16 09:38:31

Видео
Идентификатор : 1
Формат : AVC
Формат/Информация : Advanced Video Codec
Профиль формата : High@L3.1
Параметр CABAC формата : Да
Параметр ReFrames формата : 4 кадра
Идентификатор кодека : avc1
Идентификатор кодека/Информация : Advanced Video Coding
Продолжительность : 1 м. 45 с.
Битрейт : 2509 Кбит/сек
Максимальный битрейт : 4917 Кбит/сек
Ширина : 1280 пикселей
Высота : 720 пикселей
Соотношение сторон : 16:9
Режим частоты кадров : Постоянный
Частота кадров : 25,000 кадров/сек
Цветовое пространство : YUV
Субдискретизация насыщенности : 4:2:0
Битовая глубина : 8 бит
Тип развёртки : Прогрессивная
Бит/(Пиксели*Кадры) : 0.109
Размер потока : 31,6 Мбайт (94%)
Библиотека кодирования : Vimeo Encoder
Дата кодирования : UTC 2012-01-15 09:38:30
Дата пометки : UTC 2012-01-15 09:38:31

Аудио
Идентификатор : 2
Формат : AAC
Формат/Информация : Advanced Audio Codec
Профиль формата : LC
Идентификатор кодека : 40
Продолжительность : 1 м. 45 с.
Вид битрейта : Переменный
Битрейт : 157 Кбит/сек
Максимальный битрейт : 189 Кбит/сек
Каналы : 2 канала
Расположение каналов : Front: L R
Частота : 44,1 КГц
Частота кадров : 43,066 кадра/сек (1024 spf)
Метод сжатия : С потерями
Размер потока : 1,99 Мбайт (6%)
Дата кодирования : UTC 2012-01-15 09:38:31
Дата пометки : UTC 2012-01-15 09:38:31

pb.wtf



Скачать Прекрасные девушки в душе через торрент https://pic.kartinco.top/images/11/kpfcp.jpg Скачать, смотреть онлайн Прекрасные девушки в душе бесплантно в хорошем качестве Описание: Красивые девушки в ванной, душе...Чёткие линии обнажённого тела...Манящая к себе сексуальностью грудь...Капли воды стекают, так ... 9.5 10 19
Info! Золотая раздача, скачанное не засчитывается.
Торрент: Зарегистрирован [2016-07-22 12:13] · скачан: 401 раз
Статус: √ проверено
Размер: 3.45 GB
Как cкачать? Как скачать Прекрасные девушки в душе через торрент | UTorrent

28-11-2019 20:33  

Отключить всю рекламу на сайте

22-07-2016 15:44 Прекрасные девушки в душе Скачать торрент  

спс! pb.wtf



22-07-2016 17:27 Прекрасные девушки в душе Скачать торрент  

anabioz2009 писал(а):

спс!

пжлст! pb.wtf



    Дорогой пользователь! Огромная просьба, поблагодарите релизера, оцените раздачу и оставьте свои комментарий, если Вы скачали Прекрасные девушки в душе через торрент бесплатно!
    Комментировать посты могут только пользователи прошедшие не сложную регистрацию
    Показать сообщения:    

    Прекрасные девушки в душе через торрент
    Скачать бесплатно Прекрасные девушки в душе
    Прекрасные девушки в душе скачать торрент
    Прекрасные девушки в душе смотреть онлайн
    Cкачать фильм Прекрасные девушки в душе бесплатно
    Прекрасные девушки в душе скачать торрент в хорошем качестве
    Прекрасные девушки в душе смотреть онлайн бесплатно в хорошем качестве


    Вы не можете начинать темы
    Вы не можете отвечать на сообщения
    Вы не можете редактировать свои сообщения
    Вы не можете удалять свои сообщения
    Вы не можете голосовать в опросах
    Вы не можете прикреплять файлы к сообщениям
    Вы можете скачивать файлы