Ссылка на приватное зеркало нашего сайта всего за 1$. Внимание количество ограничено!!!

2 сезон

iTunes

1 сезон

1

iTunes

iTunes

iTunes

1 сезон

RePack

30

ИГРА 18+

pack

ВАЖНО

!!Акция!!

Alien_RageХит недели

RePack

MK11
pack

Забери бонус

RePack

jed

!!Акция!!

Alien_Rage

RePack

fifa19

RePack

Assassins Creed: Odyssey

RePack

NEED FOR SPEED™ PAYBACK

4 сезон

9 сезон

Бесстыжие 9 сезон

Все сериалы

все сериалы на PB.wtf

RePack

FAR CRY 5
  

Охотники за головами / Hodejegerne (Мортен Тильдум / Morten Tyldum) [2011, триллер, драма, криминал, BDRip 720p от potroks] DUB, VO pb.wtf

Охотники за головами через торрент pb.wtf

Размер: 5.75 GB | Добавлен: 4 года 3 мес. назад | Торрент скачан:432 раза
Скачать  

22-07-2016 13:12 Охотники за головами Скачать торрент  

Охотники за головами / Hodejegerne
«The hunt is on»
Год выпуска: 2011
Страна: Норвегия, Швеция, Дания, Германия
Жанр: триллер, драма, криминал
Продолжительность: 01:40:06
Перевод: Дубляж [BD RUS], Oдноголосый (закадровый)
Субтитры: русские, норвежские, английские
Навигация по главам: есть
Режиссер: Мортен Тильдум / Morten Tyldum
В ролях:

Аксель Хенни (Roger), Николай Костер-Вальдау (Clas Greve), Синневе Макоди Лунд (Diana), Эйвинд Сэндер (Ove Kjikerud), Юлия Ольгаард (Lotte), Карре Хаген Сиднесс (Lander), Валентина Алексеева (Natasja), Рейдар Серенсен (Brede Sperre), Нильс Йорген Каалстад (Stig), Йоахим Рафаелсен (Brugd), Матс Могеланд (Sunded), Гуннар Скрамстад Йонсен (Monsen 1)
Описание: Роджер Браун — блестящий «охотник за головами», незаменимый специалист по подбору топ-менеджеров для крупнейших фирм. Он может найти нужного человека на любую должность и его рекомендация — залог получения работы. Чтобы удержать красавицу жену, открывшую на деньги мужа картинную галерею в модном районе, Роджер давно уже живет не по средствам, и, пользуясь своим служебным положением, крадет дорогие картины у претендентов на руководящие должности.
Однажды Роджер встречает голландца Класа Граафа: идеального кандидата для фирмы специализирующейся на навигационном оборудовании и — вот удача! — владельца картины Рубенса, считавшейся утерянной во время Второй Мировой войны. Кража и последующая продажа шедевра может помочь Роджеру навсегда решить все финансовые проблемы.
Но, внезапно, «охотник за головами» сам превращается в добычу.

Качество: BDRip 720p
Формат: MKV
Видео кодек: AVC
Аудио кодек: AC3
Видео: AVC, 1280x534 (2.40:1), 6310 kbps, 24 fps, 0,385 bit/pixel
Аудио №1: AC3 / 5.1 / 48 kHz / 640 kbps / 16 bit | DUB - BD RUS
Аудио №2: AC3 / 5.1 / 48 kHz / 640 kbps / 16 bit | VO - А.Киреев
Аудио №3: AC3 / 5.1 / 48 kHz / 640 kbps / 16 bit | NOR

Код:

Общее
Уникальный идентификатор : 237166658107353349704706558875832132160 (0xB26CA309A51B07EF8EF383DF22FFA240)
Полное имя : Ohotniki.Za.Golovami.2011.TRIPLE.BDRip.720p.-HELLYWOOD.mkv
Формат : Matroska
Версия формата : Version 4 / Version 2
Размер файла : 5,75 Гбайт
Продолжительность : 1 ч. 40 м.
Общий поток : 8229 Кбит/сек
Название фильма : Hodejegerne (2011)
Дата кодирования : UTC 2016-07-22 07:19:50
Программа кодирования : mkvmerge v5.9.0 ('On The Loose') built on Dec 15 2012 16:39:58
Библиотека кодирования : libebml v1.3.0 + libmatroska v1.4.0

Видео
Идентификатор : 1
Формат : AVC
Формат/Информация : Advanced Video Codec
Профиль формата : High@L4.1
Параметр CABAC формата : Да
Параметр ReFrames формата : 9 кадров
Идентификатор кодека : V_MPEG4/ISO/AVC
Продолжительность : 1 ч. 40 м.
Битрейт : 6310 Кбит/сек
Ширина : 1280 пикселей
Высота : 534 пикселя
Соотношение сторон : 2,40:1
Режим частоты кадров : Постоянный
Частота кадров : 24,000 кадра/сек
Цветовое пространство : YUV
Субдискретизация насыщенности : 4:2:0
Битовая глубина : 8 бит
Тип развёртки : Прогрессивная
Бит/(Пиксели*Кадры) : 0.385
Размер потока : 4,30 Гбайт (75%)
Заголовок : potroks
Библиотека кодирования : x264 core 148 r2705M 3f5ed56
Настройки программы : cabac=1 / ref=9 / deblock=1:-3:-3 / analyse=0x3:0x133 / me=umh / subme=11 / psy=1 / psy_rd=0.96:0.00 / mixed_ref=1 / me_range=48 / chroma_me=1 / trellis=2 / 8x8dct=1 / cqm=0 / deadzone=21,11 / fast_pskip=0 / chroma_qp_offset=-2 / threads=9 / lookahead_threads=2 / sliced_threads=0 / nr=0 / decimate=0 / interlaced=0 / bluray_compat=0 / constrained_intra=0 / bframes=11 / b_pyramid=2 / b_adapt=2 / b_bias=0 / direct=3 / weightb=1 / open_gop=0 / weightp=2 / keyint=240 / keyint_min=23 / scenecut=40 / intra_refresh=0 / rc_lookahead=100 / rc=2pass / mbtree=0 / bitrate=6310 / ratetol=1.0 / qcomp=0.70 / qpmin=1 / qpmax=69 / qpstep=4 / cplxblur=20.0 / qblur=0.5 / vbv_maxrate=50000 / vbv_bufsize=60000 / nal_hrd=none / filler=0 / ip_ratio=1.40 / pb_ratio=1.30 / aq=1:0.85
Язык : Norwegian
Default : Да
Forced : Да
Цветовой диапазон : Limited
Основные цвета : BT.709
Характеристики трансфера : BT.709
Коэффициенты матрицы : BT.709

Аудио #1
Идентификатор : 2
Формат : AC-3
Формат/Информация : Audio Coding 3
Расширение режима : CM (complete main)
Параметр Endianness формата : Big
Идентификатор кодека : A_AC3
Продолжительность : 1 ч. 40 м.
Вид битрейта : Постоянный
Битрейт : 640 Кбит/сек
Каналы : 6 каналов
Расположение каналов : Front: L C R, Side: L R, LFE
Частота : 48,0 КГц
Частота кадров : 31,250 кадров/сек (1536 spf)
Метод сжатия : С потерями
Размер потока : 458 Мбайт (8%)
Заголовок : Dub | DD 5.1 @ 640 kbps - Blu-ray RUS
Язык : Russian
Default : Да
Forced : Нет

Аудио #2
Идентификатор : 3
Формат : AC-3
Формат/Информация : Audio Coding 3
Расширение режима : CM (complete main)
Параметр Endianness формата : Big
Идентификатор кодека : A_AC3
Продолжительность : 1 ч. 40 м.
Вид битрейта : Постоянный
Битрейт : 640 Кбит/сек
Каналы : 6 каналов
Расположение каналов : Front: L C R, Side: L R, LFE
Частота : 48,0 КГц
Частота кадров : 31,250 кадров/сек (1536 spf)
Метод сжатия : С потерями
Размер потока : 458 Мбайт (8%)
Заголовок : VO | DD 5.1 @ 640 kbps - A.Kireev
Язык : Russian
Default : Нет
Forced : Нет

Аудио #3
Идентификатор : 4
Формат : AC-3
Формат/Информация : Audio Coding 3
Расширение режима : CM (complete main)
Параметр Endianness формата : Big
Идентификатор кодека : A_AC3
Продолжительность : 1 ч. 40 м.
Вид битрейта : Постоянный
Битрейт : 640 Кбит/сек
Каналы : 6 каналов
Расположение каналов : Front: L C R, Side: L R, LFE
Частота : 48,0 КГц
Частота кадров : 31,250 кадров/сек (1536 spf)
Метод сжатия : С потерями
Размер потока : 458 Мбайт (8%)
Заголовок : Original | DD 5.1 @ 640 kbps
Язык : Norwegian
Default : Нет
Forced : Нет

Текст #1
Идентификатор : 5
Формат : UTF-8
Идентификатор кодека : S_TEXT/UTF8
Идентификатор кодека/Информация : UTF-8 Plain Text
Язык : Russian
Default : Нет
Forced : Нет

Текст #2
Идентификатор : 6
Формат : UTF-8
Идентификатор кодека : S_TEXT/UTF8
Идентификатор кодека/Информация : UTF-8 Plain Text
Язык : Norwegian
Default : Нет
Forced : Нет

Текст #3
Идентификатор : 7
Формат : UTF-8
Идентификатор кодека : S_TEXT/UTF8
Идентификатор кодека/Информация : UTF-8 Plain Text
Язык : English
Default : Нет
Forced : Нет

Меню
00:00:00.000 : :00:00:00.000
00:06:50.458 : :00:06:50.458
00:12:57.625 : :00:12:57.625
00:17:13.750 : :00:17:13.750
00:24:38.958 : :00:24:38.958
00:30:14.917 : :00:30:14.917
00:36:21.708 : :00:36:21.708
00:41:42.292 : :00:41:42.292
00:48:17.125 : :00:48:17.125
00:53:49.167 : :00:53:49.167
00:58:47.500 : :00:58:47.500
01:05:00.083 : :01:05:00.083
01:12:10.167 : :01:12:10.167
01:20:13.042 : :01:20:13.042
01:27:04.042 : :01:27:04.042
01:34:20.958 : :01:34:20.958

pb.wtf



Скачать Охотники за головами через торрент http://i79.fastpic.ru/big/2016/0722/4a/a275241c61cc9b9aef176d7a50a9914a.png Скачать фильм Охотники за головами через торрент бесплантно в хорошем качестве Описание: Роджер Браун — блестящий «охотник за головами», незаменимый специалист по подбору топ-менеджеров для крупнейших фирм. Он может ... 10 10 11
Info! Золотая раздача, скачанное не засчитывается.
Торрент: Зарегистрирован [2016-07-22 13:12] · скачан: 432 раз
Статус: √ проверено
Размер: 5.75 GB
Как cкачать? Как скачать Охотники за головами через торрент | qTorrent

% Раздел Тема Автор DL S | L
Фильмы (Blu-ray, BD-Remux, HDDVD) [ 33.15 GB ] Охотники за головами / Hodejegerne [2011 BD Remux 1080p] [] DUB+AVO [Ю.Сербин] bober100 Скачать
1 | 0
Фильмы [HD 720p, 1080p] (Хороший звук DUB, MVO) [ 14.54 GB ] Охотники за головами / Hodejegerne [2011 BDRip 1080p by msltel] DUB 2 x AVO VO msltel Скачать
2 | 0
Фильмы [HD 720p, 1080p] (Хороший звук DUB, MVO) [ 5.01 GB ] Охотники за головами / Hodejegerne [2011 BDRip 720p by msltel] DUB 2 x AVO VO msltel Скачать
1 | 0
Фильмы [HD 720p, 1080p] (Хороший звук DUB, MVO) [ 6.31 GB ] Охотники за головами / Hodejegerne [2011 BDRip 720p от _denis_100 / NNNB] DUB + 2xVO + Original + Sub _denis_100 Скачать
1 | 0

28-11-2019 20:33  

Отключить всю рекламу на сайте

22-07-2016 13:45 Охотники за головами Скачать торрент  

Сцена: чувак в экскрементах на тракторе с мёртвой собакой на подъёмнике долго не оставляла меня :) Я представил лицо дпсника :), что его больше смутило бы. А по фильму, то слишком "европейская" концовка, как говорится имидж всё...pb.wtf



22-07-2016 17:16 Охотники за головами Скачать торрент  

Отличный фильм. Очень незаурядный.

Не надо спойлить!!pb.wtf



24-07-2016 12:19 Охотники за головами Скачать торрент  

Фильм класс! pb.wtf



    Дорогой пользователь! Огромная просьба, поблагодарите релизера, оцените раздачу и оставьте свои комментарий, если Вы скачали Охотники за головами через торрент бесплатно! Внесите свою лепту в развитие PiratBit!
    Комментировать посты могут только пользователи прошедшие не сложную регистрацию
    Показать сообщения:    

    Охотники за головами через торрент
    Скачать бесплатно Охотники за головами
    Охотники за головами скачать торрент
    Охотники за головами смотреть онлайн
    Cкачать фильм Охотники за головами бесплатно
    Охотники за головами скачать торрент в хорошем качестве
    Охотники за головами смотреть онлайн бесплатно в хорошем качестве


    Вы не можете начинать темы
    Вы не можете отвечать на сообщения
    Вы не можете редактировать свои сообщения
    Вы не можете удалять свои сообщения
    Вы не можете голосовать в опросах
    Вы не можете прикреплять файлы к сообщениям
    Вы можете скачивать файлы