2 сезон

iTunes

MVO

1

2 сезон

iTunes

iTunes

1 сезон

RePack

30

Новинка

ВАЖНО

ИГРА 18+

pack

RePack

MK11
pack

Легкие деньги

RePack

jed

RePack

fifa19

RePack

RDR2

RePack

NEED FOR SPEED™ PAYBACK

4 сезон

9 сезон

Бесстыжие 9 сезон

Все сериалы

все сериалы на PB.wtf

RePack

FAR CRY 5

Anonymous, добрый вечер, мы не успеваем собрать деньги на оплату серверов за декабрь и январь, помогите нам пожалуйста в это трудное время. В качестве благодарности мы отключим Вам всю рекламу на сайте (укажите свой ник в строку Ваше имя)!

×
  
Magnet ссылка

BBC. Преступники Британии: разбойники, пираты и бандиты / ВBC. Britain's Outlaws: Highwaymen, Pirates and Rogues [сезон 1 серии 1-3 из 3] [2015 г., Документальный, познавательный, история, HDTVRip, Дубляж] pb.wtf

BBC. Преступники Британии: разбойники, пираты и бандиты через торрент pb.wtf

Размер: 2.4 GB | Добавлен: 4 года 5 мес. назад | Торрент скачан:54 раза
Скачать  

24-07-2016 08:06 BBC. Преступники Британии: разбойники, пираты и бандиты Скачать торрент  

BBC. Преступники Британии: разбойники пираты и бандиты / ВBC. Britain's Outlaws: Highwaymen Pirates and Rogues
Год выпуска: 2015
Страна: Великобритания
Жанр: Документальный, познавательный, история
Продолжительность: 3 х ~ 00:59:15
Перевод: Дубляж

Режиссер: ВВС



Описание:

Несколько исторических фигур Британии запомнились людям как беззаконники. Благодаря своим дерзким выходкам и романтике жизни вне закона разбойники, удалые пираты, неуловимые городские воры и бандиты стали самыми известными антигероями своего времени. Их боялись богачи, ими восхищались бедные, а писатели посвящали им книги. В этом трехсерийном фильме доктор исторических наук Сэм Уиллис отправится в путешествие по дорогам, морям и кривым улочкам, чтобы исследовать тайную жизнь разбойников, пиратов и бандитов Британии XVII-XVIII веков. Сэм покажет нам, что беззаконники - это не просто изгнанники, а ещё и продукт своего времени, созданный ключевыми социальными событиями. В каждом выпуске Сэм будет подробно рассказывать не только о каком-то определённом персонаже, а о целой эре, благодаря чему мы получим более точную картину преступной жизни XVII-XVIII веков.

Качество: HDTVRip
Формат: AVI
Видео кодек: XviD
Аудио кодек: AC3
Видео: XviD, 720x400 (16:9), 25.000 fps, 1800 Kbps (0.250 bit/pixel)
Аудио#1: AC3, 2 ch, 192 Kbps, CBR
Релиз от: alf62
1. Разбойники / Highwaymen
Доктор Сэм Уиллис расскажет нам о новом виде преступников-джентльменов, о разбойниках с большой дороги. Их романтизировали больше всего, эти пафосные гангстеры стали настоящим проклятием дорог.

2. Пираты / Pirates
Доктор Сэм Уиллис отправляется покорять моря, как это делали удалые пираты в свой золотой XVIII век. Он постарается узнать подробнее, что именно делало их самыми разыскиваемыми преступниками в мире.

3. Мошенники / Rogues
В этой серии доктор Сэм Уиллис прольёт нам свет на городскую чуму XVIII века, о мошенниках всех мастей - об обольстителях, бандитах и ворах.
скриншот   скриншот   скриншот   скриншот   скриншот  

Преступники.Британии.(1.серия.из.3).Разбойники.2015.XviD.HDTVRip.alf62.avi
Формат : AVI
Формат/Информация : Audio Video Interleave
Размер файла : 848 Мбайт
Продолжительность : 59 м.
Общий поток : 2002 Кбит/сек
Программа кодирования : VirtualDubModRus 1.5.10.2 (build 2542/release)
Библиотека кодирования : VirtualDubMod build 2542/release

Видео
Идентификатор : 0
Формат : MPEG-4 Visual
Профиль формата : Advanced Simple@L5
Параметр BVOP формата : 1
Параметр QPel формата : Нет
Параметр GMC формата : Без точки перехода
Параметр матрицы формата : Выборочная
Идентификатор кодека : XVID
Идентификатор кодека/Подсказка : XviD
Продолжительность : 59 м.
Битрейт : 1800 Кбит/сек
Ширина : 720 пикселей
Высота : 400 пикселей
Соотношение сторон : 16:9
Частота кадров : 25,000 кадров/сек
Цветовое пространство : YUV
Субдискретизация насыщенности : 4:2:0
Битовая глубина : 8 бит
Тип развёртки : Прогрессивная
Метод сжатия : С потерями
Бит/(Пиксели*Кадры) : 0.250
Размер потока : 763 Мбайт (90%)
Библиотека кодирования : XviD 73

Аудио
Идентификатор : 1
Формат : AC-3
Формат/Информация : Audio Coding 3
Идентификатор кодека : 2000
Продолжительность : 59 м.
Вид битрейта : Постоянный
Битрейт : 192 Кбит/сек
Каналы : 2 канала
Частота : 48,0 КГц
Метод сжатия : С потерями
Размер потока : 81,4 Мбайт (10%)
Выравнивание : Разделение по промежуткам
Продолжительность промежутка : 40 мс. (1,00 видеокадр)
Время предзагрузки промежутка : 500 мс.

pb.wtf



Скачать BBC. Преступники Британии: разбойники, пираты и бандиты через торрент http://i1.imageban.ru/out/2016/07/08/16825429bbf8d14726d0b68f8bda11e2.jpg Скачать фильм BBC. Преступники Британии: разбойники, пираты и бандиты через торрент бесплантно в хорошем качестве Описание: Несколько исторических фигур Британии запомнились людям как беззаконники. Благодаря своим дерзким выходкам и романтике жизни вне ... 9.5 10 8
Торрент: Зарегистрирован [2016-07-24 08:06] · скачан: 54 раз
Статус: √ проверено
Размер: 2.4 GB
Как cкачать? Как скачать BBC. Преступники Британии: разбойники, пираты и бандиты через торрент | UTorrent

28-11-2019 20:33  

Отключить всю рекламу на сайте

    Дорогой пользователь! Огромная просьба, поблагодарите релизера, оцените раздачу и оставьте свои комментарий, если Вы скачали BBC. Преступники Британии: разбойники, пираты и бандиты через торрент бесплатно! Внесите свою лепту в развитие PiratBit!
    Комментировать посты могут только пользователи прошедшие не сложную регистрацию
    Показать сообщения:    

    BBC. Преступники Британии: разбойники, пираты и бандиты через торрент
    Скачать бесплатно BBC. Преступники Британии: разбойники, пираты и бандиты
    BBC. Преступники Британии: разбойники, пираты и бандиты скачать торрент
    BBC. Преступники Британии: разбойники, пираты и бандиты смотреть онлайн
    Cкачать фильм BBC. Преступники Британии: разбойники, пираты и бандиты бесплатно
    BBC. Преступники Британии: разбойники, пираты и бандиты скачать торрент в хорошем качестве
    BBC. Преступники Британии: разбойники, пираты и бандиты смотреть онлайн бесплатно в хорошем качестве


    Вы не можете начинать темы
    Вы не можете отвечать на сообщения
    Вы не можете редактировать свои сообщения
    Вы не можете удалять свои сообщения
    Вы не можете голосовать в опросах
    Вы не можете прикреплять файлы к сообщениям
    Вы можете скачивать файлы