2 сезон

iTunes

MVO

1

2 сезон

iTunes

iTunes

1 сезон

RePack

30

Новинка

ВАЖНО

ИГРА 18+

pack

RePack

MK11
pack

Легкие деньги

RePack

jed

RePack

fifa19

RePack

RDR2

RePack

NEED FOR SPEED™ PAYBACK

4 сезон

9 сезон

Бесстыжие 9 сезон

Все сериалы

все сериалы на PB.wtf

RePack

FAR CRY 5

Anonymous, доброй ночи, мы не успеваем собрать деньги на оплату серверов за декабрь и январь, помогите нам пожалуйста в это трудное время. В качестве благодарности мы отключим Вам всю рекламу на сайте (укажите свой ник в строку Ваше имя)!

×
  
Magnet ссылка

Ведьма / The VVitch: A New-England Folktale (Роберт Эггерс / Robert Eggers) [2015, США, Великобритания, Канада, Бразилия, ужасы, детектив, BDRip-AVC от sokol_ok] DUB Лицензия pb.wtf

Ведьма через торрент pb.wtf

Раздают: 2 [ 0 KB/s ]
Размер: 746 MB | Добавлен: 4 года 5 мес. назад | Торрент скачан:298 раз
Скачать  

24-07-2016 17:55 Ведьма Скачать торрент  

Ведьма
The VVitch: A New-England Folktale

«A New-England Folktale»


Страна: США, Великобритания, Канада, Бразилия
Жанр: ужасы, детектив
Год выпуска: 2015
Продолжительность: 01:32:32

Перевод: Профессиональный (полное дублирование) [Blu-ray CEE]
Cубтитры: нет
Оригинальная аудиодорожка: нет

Режиссер: Роберт Эггерс / Robert Eggers

В ролях: Аня Тейлор-Джой, Ралф Айнесон, Кейт Дики, Харви Скримшо, Элли Грэйнджер, Лукас Доусон, Джулиан Ричингс, Батшеба Гарнетт, Сара Стефенс, Вахаб Каудхри, Акстюн Анри Дюбэ, Атан Конрад Дюбэ

Описание:
Семья колонистов покидает плантацию, чтобы жить на уединенной ферме рядом с лесом в Новой Англии. Но вскоре младший ребёнок, ещё младенец, исчезает.



Релиз:

Автор рипа: stalkerok

Сэмпл

Качество видео: BDRip-AVC [The VVitch: A New-England Folktale (2015) Blu-ray CEE 1080p AVC DTS 5.1 HDCLUB]
Формат видео: MKV
Видео кодек: AVC
Аудио кодек: AAC
Видео: 1062 Кбит/сек, 786*472 (5:3), в 23,976 (24000/1001) кадра/сек, AVC
Аудио: русский, 64,0 Кбит/сек, 48,0 КГц / 24,0 КГц, 2 канала, AAC (HE-AAC / LC)
Навигация по главам: есть

Общее
Уникальный идентификатор : 217222626211545921732240913665888240575 (0xA36B8E58C37BEBC09D450267ED5E43BF)
Полное имя : M:\2Rips\The VVitch A New-England Folktale\The.VVitch.A.New-England.Folktale.2015.BDRip-AVC.Dub.745Mb.stalkerok.new-team.mkv
Формат : Matroska
Версия формата : Version 4 / Version 2
Размер файла : 746 Мбайт
Продолжительность : 1 ч. 32 м.
Общий поток : 1127 Кбит/сек
Название фильма : The VVitch: A New-England Folktale (2015) (Rip by stalkerok)
Дата кодирования : UTC 2016-07-24 17:51:13
Программа кодирования : mkvmerge v8.6.1 ('Flying') 64bit
Библиотека кодирования : libebml v1.3.3 + libmatroska v1.4.4

Видео
Идентификатор : 1
Формат : AVC
Формат/Информация : Advanced Video Codec
Профиль формата : High@L4.1
Параметр CABAC формата : Да
Параметр ReFrames формата : 16 кадров
Идентификатор кодека : V_MPEG4/ISO/AVC
Продолжительность : 1 ч. 32 м.
Битрейт : 1062 Кбит/сек
Ширина : 786 пикселей
Высота : 472 пикселя
Соотношение сторон : 5:3
Режим частоты кадров : Постоянный
Частота кадров : 23,976 (24000/1001) кадра/сек
Цветовое пространство : YUV
Субдискретизация насыщенности : 4:2:0
Битовая глубина : 8 бит
Тип развёртки : Прогрессивная
Бит/(Пиксели*Кадры) : 0.119
Размер потока : 703 Мбайт (94%)
Заголовок : The VVitch: A New-England Folktale (2015) (Rip by stalkerok)
Библиотека кодирования : x264 core 148 r2705+54 9f484c1 t_mod_Custom [8-bit@all X86_64]
Настройки программы : cabac=1 / ref=16 / deblock=1:-3:-2 / analyse=0x3:0x133 / me=umh / subme=11 / psy=1 / fade_compensate=0.00 / psy_rd=1.00:0.00 / mixed_ref=1 / me_range=32 / chroma_me=1 / trellis=2 / 8x8dct=1 / cqm=0 / deadzone=21,11 / fast_pskip=0 / chroma_qp_offset=-2 / threads=12 / lookahead_threads=3 / sliced_threads=0 / nr=0 / decimate=0 / interlaced=0 / bluray_compat=0 / constrained_intra=0 / fgo=0 / bframes=16 / b_pyramid=2 / b_adapt=2 / b_bias=0 / direct=3 / weightb=1 / open_gop=0 / weightp=2 / keyint=240 / keyint_min=23 / scenecut=40 / intra_refresh=0 / rc_lookahead=60 / rc=2pass / mbtree=0 / bitrate=1062 / ratetol=1.0 / qcomp=0.65 / qpmin=0:0:0 / qpmax=69:69:69 / qpstep=4 / cplxblur=20.0 / qblur=0.5 / vbv_maxrate=50000 / vbv_bufsize=62500 / nal_hrd=none / filler=0 / ip_ratio=1.40 / pb_ratio=1.30 / aq=3:0.80 / aq-sensitivity=10.00 / aq-factor=1.00:1.00:1.00 / aq2=0 / aq3=0
Default : Да
Forced : Нет

Аудио
Идентификатор : 2
Формат : AAC
Формат/Информация : Advanced Audio Codec
Профиль формата : HE-AAC / LC
Идентификатор кодека : A_AAC
Продолжительность : 1 ч. 32 м.
Битрейт : 64,0 Кбит/сек
Каналы : 2 канала
Расположение каналов : Front: L R
Частота : 48,0 КГц / 24,0 КГц
Частота кадров : 23,438 кадра/сек (1024 spf)
Метод сжатия : С потерями
Задержка видео : 31 мс.
Размер потока : 42,4 Мбайт (6%)
Язык : Russian
Default : Да
Forced : Нет

Меню
00:00:00.000 : en:Chapter 1
00:04:58.715 : en:Chapter 2
00:09:48.004 : en:Chapter 3
00:13:26.889 : en:Chapter 4
00:19:06.228 : en:Chapter 5
00:22:33.060 : en:Chapter 6
00:26:55.614 : en:Chapter 7
00:30:53.601 : en:Chapter 8
00:34:46.250 : en:Chapter 9
00:37:25.701 : en:Chapter 10
00:42:28.546 : en:Chapter 11
00:48:38.290 : en:Chapter 12
00:53:38.423 : en:Chapter 13
01:00:50.605 : en:Chapter 14
01:04:28.114 : en:Chapter 15
01:10:41.987 : en:Chapter 16
01:14:09.987 : en:Chapter 17
01:19:46.865 : en:Chapter 18
01:23:15.240 : en:Chapter 19
01:28:02.610 : en:Chapter 20
pb.wtf



Скачать Ведьма через торрент http://i72.fastpic.ru/big/2015/0531/46/68ef8a2783b58e5344cc30bbd3f1b046.png Скачать фильм Ведьма через торрент бесплантно в хорошем качестве Описание:Семья колонистов покидает плантацию, чтобы жить на уединенной ферме рядом с лесом в Новой Англии. Но вскоре младший ребёнок, ещё ... 7.2 10 13
Info! Золотая раздача, скачанное не засчитывается.
Торрент: Зарегистрирован [2016-07-24 17:55] · скачан: 298 раз
Статус: √ проверено
Размер: 746 MB
Как cкачать? Как скачать Ведьма через торрент | UTorrent

% Раздел Тема Автор DL S | L
Фильмы 2015 [DVDrip, WEB-DLRip, HDrip] [ 1.46 GB ] Ведьма / The VVitch: A New-England Folktale [2015 BDRip-AVC] DUB potroks Скачать
1 | 0
Ultra HD (UHD: 2K, 4K, 8K) — видео сверхвысокой чёткости [ 39.58 GB ] Ведьма / The VVitch: A New-England Folktale [2015 UHD BDRemux 2160p] DUB [] bober100 Скачать
1 | 0
Фильмы [HD 720p, 1080p] (Хороший звук DUB, MVO) [ 7.74 GB ] Ведьма / The VVitch: A New-England Folktale [2015 BDRip 1080p от еnvy / NNNB] DUB еnvy Скачать
26 | 0
Фильмы 2015 [DVDrip, WEB-DLRip, HDrip] [ 1.46 GB ] Ведьма / The VVitch: A New-England Folktale [2015 Бразилия BDRip-AVC от sokol_ok] DUB sokol_ok Скачать
3 | 0
Фильмы 2015 [DVDrip, WEB-DLRip, HDrip] [ 1.46 GB ] Ведьма / The VVitch: A New-England Folktale [2015 Бразилия BDRip] DUB Twi7ter Скачать
1 | 0

28-11-2019 20:33  

Отключить всю рекламу на сайте

25-07-2016 04:53 Ведьма Скачать торрент  

На разок пойдёт)pb.wtf



    Дорогой пользователь! Огромная просьба, поблагодарите релизера, оцените раздачу и оставьте свои комментарий, если Вы скачали Ведьма через торрент бесплатно! Внесите свою лепту в развитие PiratBit!
    Комментировать посты могут только пользователи прошедшие не сложную регистрацию
    Показать сообщения:    

    Ведьма через торрент
    Скачать бесплатно Ведьма
    Ведьма скачать торрент
    Ведьма смотреть онлайн
    Cкачать фильм Ведьма бесплатно
    Ведьма скачать торрент в хорошем качестве
    Ведьма смотреть онлайн бесплатно в хорошем качестве


    Вы не можете начинать темы
    Вы не можете отвечать на сообщения
    Вы не можете редактировать свои сообщения
    Вы не можете удалять свои сообщения
    Вы не можете голосовать в опросах
    Вы не можете прикреплять файлы к сообщениям
    Вы можете скачивать файлы