Ссылка на приватное зеркало нашего сайта всего за 1$. Внимание количество ограничено!!!

2 сезон

iTunes

1 сезон

1

iTunes

iTunes

iTunes

1 сезон

RePack

30

ИГРА 18+

pack

ВАЖНО

!!Акция!!

Alien_RageХит недели

RePack

MK11
pack

Забери бонус

RePack

jed

!!Акция!!

Alien_Rage

RePack

fifa19

RePack

Assassins Creed: Odyssey

RePack

NEED FOR SPEED™ PAYBACK

4 сезон

9 сезон

Бесстыжие 9 сезон

Все сериалы

все сериалы на PB.wtf

RePack

FAR CRY 5
  

Ведьма / The VVitch: A New-England Folktale (Роберт Эггерс) [2015, ужасы, детектив, BDRip 1080p от еnvy / NNNB] DUB Лицензия pb.wtf

Ведьма через торрент pb.wtf

Раздают: 23 [ 7 MB/s ] Качают: 2 [ 0 KB/s ]
Размер: 7.74 GB | Добавлен: 4 года 3 мес. назад | Торрент скачан:485 раз
Скачать  

25-07-2016 08:37 Ведьма Скачать торрент  

Информация о фильме

Русское название: Ведьма / Ведьма: Сказка Новой Англии
Оригинальное название: The Witch / The VVitch: A New-England Folktale
Год выхода: 2016
Жанр: ужасы, детектив
Режиссер: Роберт Эггерс
Выпущено: США, Великобритания, Канада, Бразилия
Продолжительность: 01:32:32
Перевод: Дублированный
В ролях: Аня Тейлор-Джой, Ралф Айнесон, Кейт Дики, Харви Скримшо, Элли Грэйнджер, Лукас Доусон, Батшеба Гарнетт, Сара Стефенс, Джулиан Ричингс, Вахаб Каудхри


Сюжет фильма

Семья колонистов покидает плантацию, чтобы жить на уединенной ферме рядом с лесом в Новой Англии. Но вскоре младший ребёнок, ещё младенец, исчезает.


Файл

Качество: BDRip 1080p (исходник Blu-ray Disc)
Формат: MKV
Видео: 1798x1080, 10912 Кбит/сек, 23,976 кадр/сек, AVC, x264, High@L4.1, 5:3, 0.234 Бит/[Пиксели*Кадры]
Аудио 1: AC-3, 448 Кбит/сек, 6 канала(ов), 48,0 КГц - Дублированный / Русский
Аудио 2: AC-3, 640 Кбит/сек, 6 канала(ов), 48,0 КГц - Оригинал / Английский
Субтитры: Русские | Полные, Английские | Полные
Форсированные субтитры: Нет
Чаптеры (Главы): Есть






Автор Рипа: Группа:


Код:

Format                      : Matroska
Format version              : Version 2
File size                   : 7.74 GiB
Duration                    : 1h 32mn
Overall bit rate            : 12.0 Mbps
Movie name                  : The.VVitch.(2015).BDRip.1080p.[envy]
Encoded date                : UTC 2016-07-25 07:47:46
Writing application         : mkvmerge v5.8.0 ('No Sleep / Pillow') built on Sep  2 2012 15:37:04
Writing library             : libebml v1.2.3 + libmatroska v1.3.0

Video
ID                          : 1
Format                      : AVC
Format/Info                 : Advanced Video Codec
Format profile              : High@L4.1
Format settings, CABAC      : Yes
Format settings, ReFrames   : 4 frames
Codec ID                    : V_MPEG4/ISO/AVC
Duration                    : 1h 32mn
Bit rate                    : 10.9 Mbps
Width                       : 1 798 pixels
Height                      : 1 080 pixels
Display aspect ratio        : 5:3
Frame rate mode             : Constant
Frame rate                  : 23.976 (24000/1001) fps
Color space                 : YUV
Chroma subsampling          : 4:2:0
Bit depth                   : 8 bits
Scan type                   : Progressive
Bits/(Pixel*Frame)          : 0.234
Stream size                 : 6.88 GiB (89%)
Title                       : The.VVitch.(2015).BDRip.1080p.[envy]
Writing library             : x264 core 148 r2692 64f4e24
Encoding settings           : cabac=1 / ref=4 / deblock=1:-3:-3 / analyse=0x3:0x113 / me=umh / subme=11 / psy=1 / psy_rd=1.00:0.00 / mixed_ref=1 / me_range=32 / chroma_me=1 / trellis=2 / 8x8dct=1 / cqm=0 / deadzone=21,11 / fast_pskip=0 / chroma_qp_offset=-2 / threads=12 / lookahead_threads=1 / sliced_threads=0 / nr=0 / decimate=1 / interlaced=0 / bluray_compat=0 / constrained_intra=0 / bframes=6 / b_pyramid=2 / b_adapt=2 / b_bias=0 / direct=3 / weightb=1 / open_gop=0 / weightp=2 / keyint=240 / keyint_min=23 / scenecut=40 / intra_refresh=0 / rc=2pass / mbtree=0 / bitrate=10912 / ratetol=2.0 / qcomp=0.60 / qpmin=0 / qpmax=69 / qpstep=4 / cplxblur=20.0 / qblur=0.5 / ip_ratio=1.40 / pb_ratio=1.30 / aq=2:0.70
Language                    : English
Default                     : Yes
Forced                      : No

Audio #1
ID                          : 2
Format                      : AC-3
Format/Info                 : Audio Coding 3
Mode extension              : CM (complete main)
Format settings, Endianness : Big
Codec ID                    : A_AC3
Duration                    : 1h 32mn
Bit rate mode               : Constant
Bit rate                    : 448 Kbps
Channel(s)                  : 6 channels
Channel positions           : Front: L C R, Side: L R, LFE
Sampling rate               : 48.0 KHz
Frame rate                  : 31.250 fps (1536 spf)
Compression mode            : Lossy
Stream size                 : 297 MiB (4%)
Title                       : Dub
Language                    : Russian
Default                     : Yes
Forced                      : No

Audio #2
ID                          : 3
Format                      : AC-3
Format/Info                 : Audio Coding 3
Mode extension              : CM (complete main)
Format settings, Endianness : Big
Codec ID                    : A_AC3
Duration                    : 1h 32mn
Bit rate mode               : Constant
Bit rate                    : 640 Kbps
Channel(s)                  : 6 channels
Channel positions           : Front: L C R, Side: L R, LFE
Sampling rate               : 48.0 KHz
Frame rate                  : 31.250 fps (1536 spf)
Compression mode            : Lossy
Stream size                 : 424 MiB (5%)
Title                       : Eng
Language                    : English
Default                     : No
Forced                      : No

Text #1
ID                          : 4
Format                      : UTF-8
Codec ID                    : S_TEXT/UTF8
Codec ID/Info               : UTF-8 Plain Text
Title                       : Rus full
Language                    : Russian
Default                     : No
Forced                      : No

Text #2
ID                          : 5
Format                      : UTF-8
Codec ID                    : S_TEXT/UTF8
Codec ID/Info               : UTF-8 Plain Text
Title                       : Eng full
Language                    : English
Default                     : No
Forced                      : No

Menu
00:00:00.000                : :Chapter 01
00:04:58.715                : :Chapter 02
00:09:48.004                : :Chapter 03
00:13:26.889                : :Chapter 04
00:19:06.228                : :Chapter 05
00:22:33.060                : :Chapter 06
00:26:55.614                : :Chapter 07
00:30:53.601                : :Chapter 08
00:34:46.250                : :Chapter 09
00:37:25.701                : :Chapter 10
00:42:28.546                : :Chapter 11
00:48:38.290                : :Chapter 12
00:53:38.423                : :Chapter 13
01:00:50.605                : :Chapter 14
01:04:28.114                : :Chapter 15
01:10:41.987                : :Chapter 16
01:14:09.987                : :Chapter 17
01:19:46.865                : :Chapter 18
01:23:15.240                : :Chapter 19
01:28:02.610                : :Chapter 20


pb.wtf



Скачать Ведьма через торрент http://img10.lostpic.net/2016/07/25/296f7e188e3cedef65ec0e3fb4537733.png Скачать фильм Ведьма через торрент бесплантно в хорошем качестве В ролях: Аня Тейлор-Джой, Ралф Айнесон, Кейт Дики, Харви Скримшо, Элли Грэйнджер, Лукас Доусон, Батшеба Гарнетт, Сара Стефенс, Джулиан ... 5.3 10 10
Info! Золотая раздача, скачанное не засчитывается.
Торрент: Зарегистрирован [2016-07-25 08:41] · скачан: 485 раз
Статус: √ проверено
Размер: 7.74 GB
Как cкачать? Как скачать Ведьма через торрент | qTorrent

% Раздел Тема Автор DL S | L
Фильмы 2015 [DVDrip, WEB-DLRip, HDrip] [ 1.46 GB ] Ведьма / The VVitch: A New-England Folktale [2015 BDRip-AVC] DUB potroks Скачать
1 | 0
Ultra HD (UHD: 2K, 4K, 8K) — видео сверхвысокой чёткости [ 39.58 GB ] Ведьма / The VVitch: A New-England Folktale [2015 UHD BDRemux 2160p] DUB [] bober100 Скачать
1 | 0
Фильмы 2015 [DVDrip, WEB-DLRip, HDrip] [ 746 MB ] Ведьма / The VVitch: A New-England Folktale [2015 Бразилия BDRip-AVC от sokol_ok] DUB sokol_ok Скачать
2 | 0
Фильмы 2015 [DVDrip, WEB-DLRip, HDrip] [ 1.46 GB ] Ведьма / The VVitch: A New-England Folktale [2015 Бразилия BDRip-AVC от sokol_ok] DUB sokol_ok Скачать
3 | 0
Фильмы 2015 [DVDrip, WEB-DLRip, HDrip] [ 1.46 GB ] Ведьма / The VVitch: A New-England Folktale [2015 Бразилия BDRip] DUB Twi7ter Скачать
1 | 0

28-11-2019 20:33  

Отключить всю рекламу на сайте

25-07-2016 08:48 Ведьма Скачать торрент  

шляпа pb.wtf



25-07-2016 09:00 Ведьма Скачать торрент  

x264 [info]: frame I:786 Avg QP:11.72 size:297807
x264 [info]: frame P:28378 Avg QP:13.68 size:102549
x264 [info]: frame B:103971 Avg QP:15.94 size: 42403

Фильм был под размер 7Гб.

Сравнение ссылка
Сравнил так же как и у автора рипа, скриншоты в jpg... Сравнил бы в png, но автор не предоставил даже сэмпл.pb.wtf



25-07-2016 09:05 Ведьма Скачать торрент  

killermax2013, Пролистал фильм по быстрому... когда проверял субтитры и наличие рассинхрона. Всё отлично!!
Не впечатлил... даже просто перематывая.))))pb.wtf



25-07-2016 09:10 Ведьма Скачать торрент  

еnvy, рип норм а фильм ни о чемpb.wtf



25-07-2016 16:58 Ведьма Скачать торрент  

фильм хорош. на перемотке не то, естественноpb.wtf



26-07-2016 16:29 Ведьма Скачать торрент  

Фильм довольно атмосферный, этим и запомнился. Не то что бы понравился, но я бы посмотрел что-нибудь ещё от этого режиссёра.pb.wtf



    Дорогой пользователь! Огромная просьба, поблагодарите релизера, оцените раздачу и оставьте свои комментарий, если Вы скачали Ведьма через торрент бесплатно! Внесите свою лепту в развитие PiratBit!
    Комментировать посты могут только пользователи прошедшие не сложную регистрацию
    Показать сообщения:    

    Ведьма через торрент
    Скачать бесплатно Ведьма
    Ведьма скачать торрент
    Ведьма смотреть онлайн
    Cкачать фильм Ведьма бесплатно
    Ведьма скачать торрент в хорошем качестве
    Ведьма смотреть онлайн бесплатно в хорошем качестве


    Вы не можете начинать темы
    Вы не можете отвечать на сообщения
    Вы не можете редактировать свои сообщения
    Вы не можете удалять свои сообщения
    Вы не можете голосовать в опросах
    Вы не можете прикреплять файлы к сообщениям
    Вы можете скачивать файлы