2 сезон

iTunes

1 сезон

1

iTunes

iTunes

iTunes

1 сезон

RePack

30

ИГРА 18+

pack

ВАЖНО

!!Акция!!

Alien_RageХит недели

RePack

MK11
pack

Забери бонус

RePack

jed

!!Акция!!

Alien_Rage

RePack

fifa19

RePack

Assassins Creed: Odyssey

RePack

NEED FOR SPEED™ PAYBACK

4 сезон

9 сезон

Бесстыжие 9 сезон

Все сериалы

все сериалы на PB.wtf

RePack

FAR CRY 5
  

Всё то, что сверкает / Tout ce qui brille (Эрве Мимран, Жеральдин Накаш) [2010, комедия, BDRip 1080p by msltel] DVO pb.wtf

Всё то, что сверкает через торрент pb.wtf

Размер: 11.14 GB | Добавлен: 4 года 3 мес. назад | Торрент скачан:26 раз
Скачать  

26-07-2016 08:30 Всё то, что сверкает Скачать торрент  

Название: Всё то, что сверкает
Оригинальное название: Tout ce qui brille
Год выпуска: 2010
Страна: Франция
Жанр: комедия
Продолжительность: 01:40:01
Перевод: профессиональный двухголосый

Режиссёр: Эрве Мимран, Жеральдин Накаш

В ролях: Лейла Бехти, Жеральдин Накаш, Виржини Ледуайен, Лин Дэн Пэм, Симон Бурет, Одри Лэми, Дэниэл Коэн, Ману Пайе, Нану Гарсия

Описание: Все называют Эли и Лилу сёстрами. Они знают друг друга с детства и всё делят на двоих. Общую мечту о лучшей жизни - тоже. Они живут на периферии, в 10 минутах езды до Парижа. Чтобы приблизиться к жизни в стиле шик, где всё кажется возможным, и всё так блестит, девушки ввязываются в большие неприятности...



Качество: BDRip 1080p Сравнение с исходником
Формат: MKV
Видео: MPEG-4 AVC, 14 Mбит/с, 1920x820, 24 кадр/с
Аудио 1: русский, AC3, 384 kbps, 6 ch, 48 kHz [профессиональный двухголосый]
Аудио 2: французский, DTS, 1509 kbps, 6 ch, 48 kHz [оригинал]
Общее
Уникальный идентификатор : 172405041934321933997341080777725771717 (0x81B400D71E9ED734935A733BDAA2FFC5)
Полное имя : D:\Video\Всё, что сверкает.2010.BDRip.1080p.mkv
Формат : Matroska
Версия формата : Version 4 / Version 2
Размер файла : 11,1 Гбайт
Продолжительность : 1 ч. 40 м.
Общий поток : 15,9 Мбит/сек
Дата кодирования : UTC 2016-07-26 07:48:19
Программа кодирования : mkvmerge v8.2.0 ('World of Adventure') 64bit
Библиотека кодирования : libebml v1.3.1 + libmatroska v1.4.2

Видео
Идентификатор : 1
Формат : AVC
Формат/Информация : Advanced Video Codec
Профиль формата : High@L4.1
Параметр CABAC формата : Да
Параметр ReFrames формата : 4 кадра
Идентификатор кодека : V_MPEG4/ISO/AVC
Продолжительность : 1 ч. 40 м.
Битрейт : 14,0 Мбит/сек
Ширина : 1920 пикселей
Высота : 820 пикселей
Соотношение сторон : 2,35:1
Режим частоты кадров : Постоянный
Частота кадров : 24,000 кадра/сек
Цветовое пространство : YUV
Субдискретизация насыщенности : 4:2:0
Битовая глубина : 8 бит
Тип развёртки : Прогрессивная
Бит/(Пиксели*Кадры) : 0.372
Размер потока : 9,81 Гбайт (88%)
Библиотека кодирования : x264 core 146 r2538 121396c
Настройки программы : cabac=1 / ref=4 / deblock=1:-1:-1 / analyse=0x3:0x113 / me=umh / subme=10 / psy=1 / psy_rd=1.00:0.15 / mixed_ref=1 / me_range=32 / chroma_me=1 / trellis=2 / 8x8dct=1 / cqm=0 / deadzone=21,11 / fast_pskip=1 / chroma_qp_offset=-3 / threads=6 / lookahead_threads=1 / sliced_threads=0 / nr=0 / decimate=1 / interlaced=0 / bluray_compat=0 / constrained_intra=0 / bframes=9 / b_pyramid=2 / b_adapt=2 / b_bias=0 / direct=1 / weightb=1 / open_gop=0 / weightp=2 / keyint=230 / keyint_min=23 / scenecut=40 / intra_refresh=0 / rc_lookahead=40 / rc=crf / mbtree=0 / crf=16.6 / qcomp=0.60 / qpmin=0 / qpmax=69 / qpstep=4 / vbv_maxrate=40000 / vbv_bufsize=50000 / crf_max=0.0 / nal_hrd=none / filler=0 / ip_ratio=1.40 / pb_ratio=1.30 / aq=1:1.00
Язык : French
Default : Да
Forced : Нет

Аудио #1
Идентификатор : 2
Формат : AC-3
Формат/Информация : Audio Coding 3
Расширение режима : CM (complete main)
Параметр Endianness формата : Big
Идентификатор кодека : A_AC3
Продолжительность : 1 ч. 40 м.
Вид битрейта : Постоянный
Битрейт : 384 Кбит/сек
Каналы : 6 каналов
Расположение каналов : Front: L C R, Side: L R, LFE
Частота : 48,0 КГц
Частота кадров : 31,250 кадров/сек (1536 spf)
Метод сжатия : С потерями
Размер потока : 275 Мбайт (2%)
Заголовок : DVO
Язык : Russian
Default : Да
Forced : Нет

Аудио #2
Идентификатор : 3
Формат : DTS
Формат/Информация : Digital Theater Systems
Режим : 16
Параметр Endianness формата : Big
Идентификатор кодека : A_DTS
Продолжительность : 1 ч. 40 м.
Вид битрейта : Постоянный
Битрейт : 1509 Кбит/сек
Каналы : 6 каналов
Расположение каналов : Front: L C R, Side: L R, LFE
Частота : 48,0 КГц
Частота кадров : 93,750 кадра/сек (512 spf)
Битовая глубина : 16 бит
Метод сжатия : С потерями
Размер потока : 1,05 Гбайт (9%)
Заголовок : original
Язык : French
Default : Нет
Forced : Нет
pb.wtf



Скачать Всё то, что сверкает через торрент http://s017.radikal.ru/i440/1607/19/e6bd2661415a.jpg Скачать фильм Всё то, что сверкает через торрент бесплантно в хорошем качестве Описание: Все называют Эли и Лилу сёстрами. Они знают друг друга с детства и всё делят на двоих. Общую мечту о лучшей жизни - тоже. Они ... 10 10 2
Info! Золотая раздача, скачанное не засчитывается.
Торрент: Зарегистрирован [2016-07-26 08:30] · скачан: 26 раз
Статус: √ проверено
Размер: 11.14 GB
Как cкачать? Как скачать Всё то, что сверкает через торрент | qTorrent

% Раздел Тема Автор DL S | L
Фильмы [HD 720p, 1080p] (Хороший звук DUB, MVO) [ 3.8 GB ] Всё то что сверкает / Tout ce qui brille [2010 BDRip 720p by msltel] DVO msltel Скачать
1 | 0

28-11-2019 20:33  

Отключить всю рекламу на сайте

    Дорогой пользователь! Огромная просьба, поблагодарите релизера, оцените раздачу и оставьте свои комментарий, если Вы скачали Всё то, что сверкает через торрент бесплатно! Внесите свою лепту в развитие PiratBit!
    Комментировать посты могут только пользователи прошедшие не сложную регистрацию
    Показать сообщения:    

    Всё то, что сверкает через торрент
    Скачать бесплатно Всё то, что сверкает
    Всё то, что сверкает скачать торрент
    Всё то, что сверкает смотреть онлайн
    Cкачать фильм Всё то, что сверкает бесплатно
    Всё то, что сверкает скачать торрент в хорошем качестве
    Всё то, что сверкает смотреть онлайн бесплатно в хорошем качестве


    Вы не можете начинать темы
    Вы не можете отвечать на сообщения
    Вы не можете редактировать свои сообщения
    Вы не можете удалять свои сообщения
    Вы не можете голосовать в опросах
    Вы не можете прикреплять файлы к сообщениям
    Вы можете скачивать файлы