Ссылка на приватное зеркало нашего сайта всего за 1$. Внимание количество ограничено!!!

2 сезон

iTunes

1 сезон

1

iTunes

iTunes

iTunes

1 сезон

RePack

30

ИГРА 18+

pack

ВАЖНО

!!Акция!!

Alien_RageХит недели

RePack

MK11
pack

Забери бонус

RePack

jed

!!Акция!!

Alien_Rage

RePack

fifa19

RePack

Assassins Creed: Odyssey

RePack

NEED FOR SPEED™ PAYBACK

4 сезон

9 сезон

Бесстыжие 9 сезон

Все сериалы

все сериалы на PB.wtf

RePack

FAR CRY 5
  

Ромео истекает кровью / Romeo Is Bleeding (Питер Медак) [1993 г., боевик, триллер, драма, криминал, BDRip 720p] 4x MVO, 2x DVO, AVO pb.wtf

Ромео истекает кровью через торрент pb.wtf

Размер: 4.96 GB | Добавлен: 4 года 2 мес. назад | Торрент скачан:79 раз
Скачать  

26-07-2016 16:52 Ромео истекает кровью Скачать торрент  

Ромео истекает кровью / Romeo Is Bleeding
Год выпуска: 1993
Страна: Великобритания, США
Жанр: боевик, триллер, драма, криминал
Продолжительность: 01:49:58
Перевод: Профессиональный (многоголосый)
Субтитры: Русские, английские

Режиссер: Питер Медак
Продюссер: Хилари Хенкин, Пол Уэбстер, Тим Беван
Сценарий: Хилари Хенкин

Бюджет: $11 500 000
Премьера в мире: 13 сентября 1993

R - Детям до 17 лет обязательно присутствие родителей


В ролях: Гэри Олдман, Лена Олин, Джульетт Льюис, Дэвид Провэл, Уилл Пэттон, Джин Кэнфилд, Ларри Джошуа, Майкл Уинкотт, Уильям Дафф-Гриффин, Джеймс Кромуэлл, Рой Шайдер

Описание: Офицер полиции Джек продает мафии информацию об охраняемых им людях, которые проходят по программе защиты свидетелей. Однажды он знакомится с безжалостным, коварным и обольстительным киллером по имени Мона. Мона принимает участие в убийстве полицейских, охранявших одного из свидетелей, подставленных Джеком. Но, несмотря ни на что, Джека неудержимо влечет к Моне. И он получает сразу три предложения. Одно от ФБР — охранять Мону, второе от гангстеров — убрать ее, ну а сама Мона делает Джеку третье, которое совершенно исключает два первых…

Качество: BDRip 720p
Формат: MKV
Видео кодек: H.264
Аудио кодек: AC3
Видео: MPEG-4 AVC, 4146 Кбит/с, 1280x696, 23.976 кадр/с
Аудио#1: AC3, 2 ch, 48,0 КГц, 448 Кбит/с | Профессиональный многоголосый
Аудио#2: AC3, 2 ch, 48,0 КГц, 192 Кбит/с | Профессиональный многоголосый (DVD)
Аудио#3: AC3, 2 ch, 48,0 КГц, 192 Кбит/с | Профессиональный многоголосый (5 канал)
Аудио#4: AC3, 2 ch, 48,0 КГц, 192 Кбит/с | Профессиональный многоголосый (ТВЦ)
Аудио#5: AC3, 2 ch, 48,0 КГц, 192 Кбит/с | Профессиональный двухголосый (Екатеринбург Арт)
Аудио#6: AC3, 2 ch, 48,0 КГц, 192 Кбит/с | Профессиональный двухголосый (НТВ+)
Аудио#7: AC3, 2 ch, 48,0 КГц, 448 Кбит/с | Авторский (A. Гаврилов)
Аудио#8: AC3, 2 ch, 48,0 КГц, 448 Кбит/с | Английский

Релиз от: Koenig




Общее
Уникальный идентификатор : 189715764732727474387561606899079375874 (0x8EB9ED5E6D9798D1B2358C44A274EC02)
Полное имя : Romeo.Is.Bleeding.1993.BDRip.720p.mkv
Формат : Matroska
Версия формата : Version 4 / Version 2
Размер файла : 4,96 Гбайт
Продолжительность : 1 ч. 49 м.
Общий поток : 6452 Кбит/сек
Название фильма : Romeo Is Bleeding
Режиссёр : Peter Medak
Дата кодирования : UTC 2016-07-16 07:20:33
Программа кодирования : mkvmerge v9.2.0 ('Photograph') 32bit
Библиотека кодирования : libebml v1.3.3 + libmatroska v1.4.4
Attachements : cover.jpg
Release : Koenig
DURATION : 01:41:58.994000000
NUMBER_OF_FRAMES : 884
NUMBER_OF_BYTES : 29756
_STATISTICS_WRITING_APP : mkvmerge v9.2.0 ('Photograph') 32bit
_STATISTICS_WRITING_DATE_UTC : 2016-07-16 07:20:33
_STATISTICS_TAGS : BPS DURATION NUMBER_OF_FRAMES NUMBER_OF_BYTES

Видео
Идентификатор : 1
Формат : AVC
Формат/Информация : Advanced Video Codec
Профиль формата : High@L4.1
Параметр CABAC формата : Да
Параметр ReFrames формата : 9 кадров
Идентификатор кодека : V_MPEG4/ISO/AVC
Продолжительность : 1 ч. 49 м.
Битрейт : 4146 Кбит/сек
Ширина : 1280 пикселей
Высота : 696 пикселей
Соотношение сторон : 1,85:1
Режим частоты кадров : Постоянный
Частота кадров : 23,976 кадра/сек
Цветовое пространство : YUV
Субдискретизация насыщенности : 4:2:0
Битовая глубина : 8 бит
Тип развёртки : Прогрессивная
Бит/(Пиксели*Кадры) : 0.194
Размер потока : 3,09 Гбайт (62%)
Библиотека кодирования : x264 core 148 r2692 64f4e24
Настройки программы : cabac=1 / ref=9 / deblock=1:-3:-3 / analyse=0x3:0x133 / me=umh / subme=10 / psy=1 / psy_rd=1.00:0.05 / mixed_ref=1 / me_range=32 / chroma_me=1 / trellis=2 / 8x8dct=1 / cqm=0 / deadzone=21,11 / fast_pskip=0 / chroma_qp_offset=-3 / threads=3 / lookahead_threads=1 / sliced_threads=0 / nr=0 / decimate=1 / interlaced=0 / bluray_compat=0 / constrained_intra=0 / bframes=10 / b_pyramid=2 / b_adapt=2 / b_bias=0 / direct=3 / weightb=1 / open_gop=0 / weightp=2 / keyint=240 / keyint_min=23 / scenecut=40 / intra_refresh=0 / rc_lookahead=40 / rc=2pass / mbtree=1 / bitrate=4146 / ratetol=1.0 / qcomp=0.60 / qpmin=10 / qpmax=51 / qpstep=4 / cplxblur=20.0 / qblur=0.5 / vbv_maxrate=50000 / vbv_bufsize=62500 / nal_hrd=none / filler=0 / ip_ratio=1.40 / aq=1:1.00
Default : Да
Forced : Нет

Аудио #1
Идентификатор : 2
Формат : AC-3
Формат/Информация : Audio Coding 3
Расширение режима : CM (complete main)
Параметр Endianness формата : Big
Идентификатор кодека : A_AC3
Продолжительность : 1 ч. 49 м.
Вид битрейта : Постоянный
Битрейт : 448 Кбит/сек
Каналы : 2 канала
Расположение каналов : Front: L R
Частота : 48,0 КГц
Метод сжатия : С потерями
Размер потока : 352 Мбайт (7%)
Заголовок : MVO
Язык : Russian
Default : Да
Forced : Нет

Аудио #2
Идентификатор : 3
Формат : AC-3
Формат/Информация : Audio Coding 3
Расширение режима : CM (complete main)
Параметр Endianness формата : Big
Идентификатор кодека : A_AC3
Продолжительность : 1 ч. 49 м.
Вид битрейта : Постоянный
Битрейт : 192 Кбит/сек
Каналы : 2 канала
Расположение каналов : Front: L R
Частота : 48,0 КГц
Метод сжатия : С потерями
Размер потока : 151 Мбайт (3%)
Заголовок : MVO - DVD
Язык : Russian
Default : Нет
Forced : Нет

Аудио #3
Идентификатор : 4
Формат : AC-3
Формат/Информация : Audio Coding 3
Расширение режима : CM (complete main)
Параметр Endianness формата : Big
Идентификатор кодека : A_AC3
Продолжительность : 1 ч. 49 м.
Вид битрейта : Постоянный
Битрейт : 192 Кбит/сек
Каналы : 2 канала
Расположение каналов : Front: L R
Частота : 48,0 КГц
Метод сжатия : С потерями
Размер потока : 151 Мбайт (3%)
Заголовок : MVO - 5 канал
Язык : Russian
Default : Нет
Forced : Нет

Аудио #4
Идентификатор : 5
Формат : AC-3
Формат/Информация : Audio Coding 3
Расширение режима : CM (complete main)
Параметр Endianness формата : Big
Идентификатор кодека : A_AC3
Продолжительность : 1 ч. 49 м.
Вид битрейта : Постоянный
Битрейт : 192 Кбит/сек
Каналы : 2 канала
Расположение каналов : Front: L R
Частота : 48,0 КГц
Метод сжатия : С потерями
Размер потока : 151 Мбайт (3%)
Заголовок : MVO - ТВЦ
Язык : Russian
Default : Нет
Forced : Нет

Аудио #5
Идентификатор : 6
Формат : AC-3
Формат/Информация : Audio Coding 3
Расширение режима : CM (complete main)
Параметр Endianness формата : Big
Идентификатор кодека : A_AC3
Продолжительность : 1 ч. 49 м.
Вид битрейта : Постоянный
Битрейт : 192 Кбит/сек
Каналы : 2 канала
Расположение каналов : Front: L R
Частота : 48,0 КГц
Метод сжатия : С потерями
Размер потока : 151 Мбайт (3%)
Заголовок : DVO - Екатеринбург Арт
Язык : Russian
Default : Нет
Forced : Нет

Аудио #6
Идентификатор : 7
Формат : AC-3
Формат/Информация : Audio Coding 3
Расширение режима : CM (complete main)
Параметр Endianness формата : Big
Идентификатор кодека : A_AC3
Продолжительность : 1 ч. 49 м.
Вид битрейта : Постоянный
Битрейт : 192 Кбит/сек
Каналы : 2 канала
Расположение каналов : Front: L R
Частота : 48,0 КГц
Метод сжатия : С потерями
Размер потока : 151 Мбайт (3%)
Заголовок : DVO - НТВ+
Язык : Russian
Default : Нет
Forced : Нет

Аудио #7
Идентификатор : 8
Формат : AC-3
Формат/Информация : Audio Coding 3
Расширение режима : CM (complete main)
Параметр Endianness формата : Big
Идентификатор кодека : A_AC3
Продолжительность : 1 ч. 49 м.
Вид битрейта : Постоянный
Битрейт : 448 Кбит/сек
Каналы : 2 канала
Расположение каналов : Front: L R
Частота : 48,0 КГц
Метод сжатия : С потерями
Размер потока : 352 Мбайт (7%)
Заголовок : AVO - A. Гаврилов
Язык : Russian
Default : Нет
Forced : Нет

Аудио #8
Идентификатор : 9
Формат : AC-3
Формат/Информация : Audio Coding 3
Расширение режима : CM (complete main)
Параметр Endianness формата : Big
Идентификатор кодека : A_AC3
Продолжительность : 1 ч. 49 м.
Вид битрейта : Постоянный
Битрейт : 448 Кбит/сек
Каналы : 2 канала
Расположение каналов : Front: L R
Частота : 48,0 КГц
Метод сжатия : С потерями
Размер потока : 352 Мбайт (7%)
Язык : English
Default : Нет
Forced : Нет

Текст #1
Идентификатор : 10
Формат : UTF-8
Идентификатор кодека : S_TEXT/UTF8
Идентификатор кодека/Информация : UTF-8 Plain Text
Язык : Russian
Default : Да
Forced : Нет

Текст #2
Идентификатор : 11
Формат : UTF-8
Идентификатор кодека : S_TEXT/UTF8
Идентификатор кодека/Информация : UTF-8 Plain Text
Язык : English
Default : Нет
Forced : Нет

Меню
00:00:00.000 : en:
00:04:10.667 : en:
00:08:06.484 : en:
00:13:55.709 : en:
00:17:28.797 : en:
00:23:39.876 : en:
00:28:03.056 : en:
00:32:02.420 : en:
00:36:35.193 : en:
00:40:11.283 : en:
00:46:12.978 : en:
00:47:52.828 : en:
00:54:35.563 : en:
00:57:36.035 : en:
01:03:41.734 : en:
01:06:36.659 : en:
01:12:56.830 : en:
01:17:58.631 : en:
01:21:11.241 : en:
01:24:09.042 : en:
01:30:06.359 : en:
01:34:11.020 : en:
01:40:50.002 : en:
01:44:10.243 : en:
01:49:58.466 : en:

Romeo Is Bleeding скачать торрент

pb.wtf



Скачать Ромео истекает кровью через торрент http://pic.kartinco.top/images/11/dpyte.jpg Скачать фильм Ромео истекает кровью через торрент бесплантно в хорошем качестве Описание: Офицер полиции Джек продает мафии информацию об охраняемых им людях, которые проходят по программе защиты свидетелей. Однажды он ... 9.4 10 10
Торрент: Зарегистрирован [2016-07-26 16:52] · скачан: 79 раз
Статус: √ проверено
Размер: 4.96 GB
Как cкачать? Как скачать Ромео истекает кровью через торрент | qTorrent

28-11-2019 20:33  

Отключить всю рекламу на сайте

27-07-2016 06:24 Ромео истекает кровью Скачать торрент  

У Ромео месячные начались)pb.wtf



    Дорогой пользователь! Огромная просьба, поблагодарите релизера, оцените раздачу и оставьте свои комментарий, если Вы скачали Ромео истекает кровью через торрент бесплатно! Внесите свою лепту в развитие PiratBit!
    Комментировать посты могут только пользователи прошедшие не сложную регистрацию
    Показать сообщения:    

    Ромео истекает кровью через торрент
    Скачать бесплатно Ромео истекает кровью
    Ромео истекает кровью скачать торрент
    Ромео истекает кровью смотреть онлайн
    Cкачать фильм Ромео истекает кровью бесплатно
    Ромео истекает кровью скачать торрент в хорошем качестве
    Ромео истекает кровью смотреть онлайн бесплатно в хорошем качестве


    Вы не можете начинать темы
    Вы не можете отвечать на сообщения
    Вы не можете редактировать свои сообщения
    Вы не можете удалять свои сообщения
    Вы не можете голосовать в опросах
    Вы не можете прикреплять файлы к сообщениям
    Вы можете скачивать файлы