Ссылка на приватное зеркало нашего сайта всего за 1$. Внимание количество ограничено!!!

2 сезон

iTunes

1 сезон

1

iTunes

iTunes

iTunes

1 сезон

RePack

30

ИГРА 18+

pack

ВАЖНО

!!Акция!!

Alien_RageХит недели

RePack

MK11
pack

Забери бонус

RePack

jed

!!Акция!!

Alien_Rage

RePack

fifa19

RePack

Assassins Creed: Odyssey

RePack

NEED FOR SPEED™ PAYBACK

4 сезон

9 сезон

Бесстыжие 9 сезон

Все сериалы

все сериалы на PB.wtf

RePack

FAR CRY 5
  

Хоть раз в жизни / Begin Again (Джон Карни) [2013, драма, музыка, BDRip 720p by msltel] DUB pb.wtf

Хоть раз в жизни через торрент pb.wtf

Размер: 4.85 GB | Добавлен: 4 года 3 мес. назад | Торрент скачан:99 раз
Скачать  

27-07-2016 06:55 Хоть раз в жизни Скачать торрент  

Название: Хоть раз в жизни
Оригинальное название: Begin Again
Год выпуска: 2013
Страна: США
Жанр: драма, музыка
Продолжительность: 01:44:25
Перевод: дублированный

Режиссёр: Джон Карни

В ролях: Кира Найтли, Марк Руффало, Хейли Стайнфелд, Адам Левин, Джеймс Корден, Мос Деф, Си-Ло, Кэтрин Кинер, Карен Питтман, Пол Ромеро

Описание: Они живут в сердце музыкального мира, в Нью-Йорке. Дэн – легенда шоу-бизнеса и бывший глава музыкального лейбла. Грета – музыкант и бывшая девушка рок-звезды. Но люди бывшими и оказываются для того, чтобы начать всё сначала. Случайная встреча с Гретой дает Дэну новый шанс. Они решают вместе записать альбом. У них нет ни денег, ни профессиональных музыкантов, но всё это не важно, потому что Грета и Дэн готовы к самым неожиданным поворотам и в музыке, и в любви. Их студией становится весь Нью-Йорк...



Качество: BDRip 720p Сравнение с исходником
Формат: MKV
Видео: MPEG-4 AVC, 5755 Кбит/с, 1280x690, 23,976 кадра/с
Аудио 1: русский, AC3, 448 kbps, 6 ch, 48 kHz [дублированный]
Аудио 2: английский, AC3, 448 kbps, 6 ch, 48 kHz [оригинал]
Субтитры 1: русские
Субтитры 2: английские
Общее
Уникальный идентификатор : 241367021770054666982388122618424467007 (0xB59598F48B5DC919ADC8844F5C541E3F)
Полное имя : D:\Video\Хоть раз в жизни.2013.BDRip.720p.mkv
Формат : Matroska
Версия формата : Version 4 / Version 2
Размер файла : 4,85 Гбайт
Продолжительность : 1 ч. 44 м.
Общий поток : 6653 Кбит/сек
Дата кодирования : UTC 2016-07-27 05:17:52
Программа кодирования : mkvmerge v8.2.0 ('World of Adventure') 64bit
Библиотека кодирования : libebml v1.3.1 + libmatroska v1.4.2

Видео
Идентификатор : 1
Формат : AVC
Формат/Информация : Advanced Video Codec
Профиль формата : High@L4.1
Параметр CABAC формата : Да
Параметр ReFrames формата : 9 кадров
Идентификатор кодека : V_MPEG4/ISO/AVC
Продолжительность : 1 ч. 44 м.
Битрейт : 5755 Кбит/сек
Ширина : 1280 пикселей
Высота : 690 пикселей
Соотношение сторон : 1,85:1
Режим частоты кадров : Постоянный
Частота кадров : 23,976 (24000/1001) кадра/сек
Цветовое пространство : YUV
Субдискретизация насыщенности : 4:2:0
Битовая глубина : 8 бит
Тип развёртки : Прогрессивная
Бит/(Пиксели*Кадры) : 0.272
Размер потока : 4,20 Гбайт (86%)
Библиотека кодирования : x264 core 146 r2538 121396c
Настройки программы : cabac=1 / ref=9 / deblock=1:-1:-1 / analyse=0x3:0x113 / me=umh / subme=10 / psy=1 / psy_rd=1.00:0.15 / mixed_ref=1 / me_range=32 / chroma_me=1 / trellis=2 / 8x8dct=1 / cqm=0 / deadzone=21,11 / fast_pskip=1 / chroma_qp_offset=-3 / threads=6 / lookahead_threads=1 / sliced_threads=0 / nr=0 / decimate=1 / interlaced=0 / bluray_compat=0 / constrained_intra=0 / bframes=9 / b_pyramid=2 / b_adapt=2 / b_bias=0 / direct=1 / weightb=1 / open_gop=0 / weightp=2 / keyint=230 / keyint_min=23 / scenecut=40 / intra_refresh=0 / rc_lookahead=40 / rc=crf / mbtree=0 / crf=16.5 / qcomp=0.60 / qpmin=0 / qpmax=69 / qpstep=4 / vbv_maxrate=40000 / vbv_bufsize=50000 / crf_max=0.0 / nal_hrd=none / filler=0 / ip_ratio=1.40 / pb_ratio=1.30 / aq=1:1.00
Язык : English
Default : Да
Forced : Нет

Аудио #1
Идентификатор : 2
Формат : AC-3
Формат/Информация : Audio Coding 3
Расширение режима : CM (complete main)
Параметр Endianness формата : Big
Идентификатор кодека : A_AC3
Продолжительность : 1 ч. 44 м.
Вид битрейта : Постоянный
Битрейт : 448 Кбит/сек
Каналы : 6 каналов
Расположение каналов : Front: L C R, Side: L R, LFE
Частота : 48,0 КГц
Частота кадров : 31,250 кадров/сек (1536 spf)
Метод сжатия : С потерями
Размер потока : 335 Мбайт (7%)
Заголовок : DUB
Язык : Russian
Default : Да
Forced : Нет

Аудио #2
Идентификатор : 3
Формат : AC-3
Формат/Информация : Audio Coding 3
Расширение режима : CM (complete main)
Параметр Endianness формата : Big
Идентификатор кодека : A_AC3
Продолжительность : 1 ч. 44 м.
Вид битрейта : Постоянный
Битрейт : 448 Кбит/сек
Каналы : 6 каналов
Расположение каналов : Front: L C R, Side: L R, LFE
Частота : 48,0 КГц
Частота кадров : 31,250 кадров/сек (1536 spf)
Метод сжатия : С потерями
Размер потока : 335 Мбайт (7%)
Заголовок : original
Язык : English
Default : Нет
Forced : Нет

Текст #1
Идентификатор : 4
Формат : UTF-8
Идентификатор кодека : S_TEXT/UTF8
Идентификатор кодека/Информация : UTF-8 Plain Text
Продолжительность : 1 ч. 42 м.
Битрейт : 92 бит/сек
Count of elements : 1327
Размер потока : 69,8 Кбайт (0%)
Заголовок : русские
Язык : Russian
Default : Нет
Forced : Нет

Текст #2
Идентификатор : 5
Формат : UTF-8
Идентификатор кодека : S_TEXT/UTF8
Идентификатор кодека/Информация : UTF-8 Plain Text
Продолжительность : 1 ч. 42 м.
Битрейт : 66 бит/сек
Count of elements : 1320
Размер потока : 49,9 Кбайт (0%)
Заголовок : английские
Язык : English
Default : Нет
Forced : Нет
pb.wtf



Скачать Хоть раз в жизни через торрент http://s16.radikal.ru/i190/1607/82/a8cb8022afdc.jpg Скачать фильм Хоть раз в жизни через торрент бесплантно в хорошем качестве Описание: Они живут в сердце музыкального мира, в Нью-Йорке. Дэн – легенда шоу-бизнеса и бывший глава музыкального лейбла. Грета – музыкант ... 10 10 1
Info! Золотая раздача, скачанное не засчитывается.
Торрент: Зарегистрирован [2016-07-27 06:55] · скачан: 99 раз
Статус: √ проверено
Размер: 4.85 GB
Как cкачать? Как скачать Хоть раз в жизни через торрент | qTorrent

% Раздел Тема Автор DL S | L
Фильмы [HD 720p, 1080p] (Хороший звук DUB, MVO) [ 13.78 GB ] Хоть раз в жизни / Begin Again [2013 музыка BDRip 1080p by msltel] DUB msltel Скачать
1 | 0

28-11-2019 20:33  

Отключить всю рекламу на сайте

31-07-2016 02:14 Хоть раз в жизни Скачать торрент  

Как смотреть хоть можно?pb.wtf



    Дорогой пользователь! Огромная просьба, поблагодарите релизера, оцените раздачу и оставьте свои комментарий, если Вы скачали Хоть раз в жизни через торрент бесплатно! Внесите свою лепту в развитие PiratBit!
    Комментировать посты могут только пользователи прошедшие не сложную регистрацию
    Показать сообщения:    

    Хоть раз в жизни через торрент
    Скачать бесплатно Хоть раз в жизни
    Хоть раз в жизни скачать торрент
    Хоть раз в жизни смотреть онлайн
    Cкачать фильм Хоть раз в жизни бесплатно
    Хоть раз в жизни скачать торрент в хорошем качестве
    Хоть раз в жизни смотреть онлайн бесплатно в хорошем качестве


    Вы не можете начинать темы
    Вы не можете отвечать на сообщения
    Вы не можете редактировать свои сообщения
    Вы не можете удалять свои сообщения
    Вы не можете голосовать в опросах
    Вы не можете прикреплять файлы к сообщениям
    Вы можете скачивать файлы