Ссылка на приватное зеркало нашего сайта всего за 1$. Внимание количество ограничено!!!

2 сезон

iTunes

1 сезон

1

2 сезон

2 сезон

iTunes

1 сезон

RePack

30

Новинка

ВАЖНО

ИГРА 18+

pack

RePack

MK11
pack

Забери бонус

RePack

jed

!!Акция!!

Alien_Rage

RePack

fifa19

RePack

Assassins Creed: Odyssey

RePack

NEED FOR SPEED™ PAYBACK

4 сезон

9 сезон

Бесстыжие 9 сезон

Все сериалы

все сериалы на PB.wtf

RePack

FAR CRY 5
  

Милые Обманщицы / Pretty Little Liars / Сезон: 6 / Серия 1-20 (из 20) (Норман Баккли, Рон Лагомарсино, Крис Грисмер) [2015 г., триллер, драма, детектив, WEB-DLRip, Профессиональный многоголосый NewStudio] pb.wtf

Милые Обманщицы через торрент pb.wtf

Размер: 10.74 GB | Добавлен: 4 года 4 мес. назад | Торрент скачан:1 раз
Скачать  

27-07-2016 13:31 Милые Обманщицы Скачать торрент  

Милые Обманщицы / Pretty Little Liars
Год выпуска: 2015
Страна: США
Жанр: триллер, драма, детектив
Продолжительность: 43 мин. / серия
Перевод: Профессиональный многоголосый NewStudio

Режиссер: Норман Баккли, Рон Лагомарсино, Крис Грисмер

В ролях: Люси Хейл, Тройэн Эвери Беллисарио, Эшли Бенсон, Холли Мари Комбс, Лора Лейтон, Чад Лоу, Шэй Митчел

Описание: Главными героями телесериала являются четыре потрясающих девушки, которые собираются вместе после трагических событий, произошедших год назад. Одна из подружек, девочка по имени Элисон умирает при странных обстоятельствах. Но не это объединяет девушек на этот раз, теперь им приходят смс- сообщения на телефон от некого «Э», который грозится рассказать все секреты девушек. А у милых красоток секретов было немало. Девушки решают во что бы то ни стило найти этого загадочного «Э» и сохранить свои тайны. Но для того ,что разобраться с шантажистом им придётся преодолеть много трудностей.

Качество: WEB-DLRip
Формат: AVI
Видео кодек: XviD
Аудио кодек: MP3
Видео: XviD / 720x400 / 23.976fps / 1536 kbps
Аудио#1: русский / MP3 / 48000Hz / stereo / 128kbps
Аудио#2: английский / MP3 / 48000Hz / stereo / 128kbps

General
Complete name : C:\PiratBit\Pretty.Little.Liars (S06) NewStudio\Pretty.Little.Liars.s06e12.WEBDLRip.NewStudio.TV.avi
Format : AVI
Format/Info : Audio Video Interleave
File size : 550 MiB
Duration : 42 min
Overall bit rate : 1 806 kb/s
Writing application : VirtualDubMod 1.5.10.2 (build 2540/release)
Writing library : VirtualDubMod build 2540/release

Video
ID : 0
Format : MPEG-4 Visual
Format profile : Advanced Simple@L5
Format settings, BVOP : 2
Format settings, QPel : No
Format settings, GMC : No warppoints
Format settings, Matrix : Default (MPEG)
Codec ID : XVID
Codec ID/Hint : XviD
Duration : 42 min
Bit rate : 1 536 kb/s
Width : 720 pixels
Height : 400 pixels
Display aspect ratio : 16:9
Frame rate : 23.976 (23976/1000) FPS
Color space : YUV
Chroma subsampling : 4:2:0
Bit depth : 8 bits
Scan type : Progressive
Compression mode : Lossy
Bits/(Pixel*Frame) : 0.222
Stream size : 468 MiB (85%)
Writing library : XviD 73

Audio #1
ID : 1
Format : MPEG Audio
Format version : Version 1
Format profile : Layer 3
Mode : Joint stereo
Mode extension : MS Stereo
Codec ID : 55
Codec ID/Hint : MP3
Duration : 42 min
Bit rate mode : Constant
Bit rate : 128 kb/s
Channel(s) : 2 channels
Sampling rate : 48.0 kHz
Compression mode : Lossy
Stream size : 39.0 MiB (7%)
Alignment : Aligned on interleaves
Interleave, duration : 42 ms (1.00 video frame)
Interleave, preload duration : 504 ms

Audio #2
ID : 2
Format : MPEG Audio
Format version : Version 1
Format profile : Layer 3
Mode : Joint stereo
Mode extension : MS Stereo
Codec ID : 55
Codec ID/Hint : MP3
Duration : 42 min
Bit rate mode : Constant
Bit rate : 128 kb/s
Channel(s) : 2 channels
Sampling rate : 48.0 kHz
Compression mode : Lossy
Stream size : 39.0 MiB (7%)
Alignment : Aligned on interleaves
Interleave, duration : 42 ms (1.00 video frame)
Interleave, preload duration : 504 ms
Writing library : LAME3.99r
Encoding settings : -m j -V 4 -q 2 -lowpass 17 -b 128
pb.wtf



Скачать Милые Обманщицы через торрент http://pic1.kartinco.top/images/10/tw11y.jpg Скачать фильм Милые Обманщицы через торрент бесплантно в хорошем качестве Описание: Главными героями телесериала являются четыре потрясающих девушки, которые собираются вместе после трагических событий, ... 5 10 1
Торрент: Зарегистрирован [2016-07-27 13:31] · скачан: 1 раз
Статус: √ проверено
Размер: 10.74 GB
Как cкачать? Как скачать Милые Обманщицы через торрент | qTorrent

% Раздел Тема Автор DL S | L
Зарубежные сериалы [ 3.76 GB ] Милые Обманщицы / Pretty Little Liars / Сезон: 7 / Серия 1-6 [2016 WEB-DLRip многоголосый NewStudio] nn99nn Скачать
1 | 0

28-11-2019 20:33  

Отключить всю рекламу на сайте

    Дорогой пользователь! Огромная просьба, поблагодарите релизера, оцените раздачу и оставьте свои комментарий, если Вы скачали Милые Обманщицы через торрент бесплатно! Внесите свою лепту в развитие PiratBit!
    Комментировать посты могут только пользователи прошедшие не сложную регистрацию
    Показать сообщения:    

    Милые Обманщицы через торрент
    Скачать бесплатно Милые Обманщицы
    Милые Обманщицы скачать торрент
    Милые Обманщицы смотреть онлайн
    Cкачать фильм Милые Обманщицы бесплатно
    Милые Обманщицы скачать торрент в хорошем качестве
    Милые Обманщицы смотреть онлайн бесплатно в хорошем качестве


    Вы не можете начинать темы
    Вы не можете отвечать на сообщения
    Вы не можете редактировать свои сообщения
    Вы не можете удалять свои сообщения
    Вы не можете голосовать в опросах
    Вы не можете прикреплять файлы к сообщениям
    Вы можете скачивать файлы