Ссылка на приватное зеркало нашего сайта всего за 1$. Внимание количество ограничено!!!

2 сезон

iTunes

1 сезон

1

2 сезон

2 сезон

iTunes

1 сезон

RePack

30

Новинка

ВАЖНО

ИГРА 18+

pack

RePack

MK11
pack

Забери бонус

RePack

jed

!!Акция!!

Alien_Rage

RePack

fifa19

RePack

Assassins Creed: Odyssey

RePack

NEED FOR SPEED™ PAYBACK

4 сезон

9 сезон

Бесстыжие 9 сезон

Все сериалы

все сериалы на PB.wtf

RePack

FAR CRY 5
  

Идём со мной / Blackway [2015, триллер, WEB-DL 1080p] [DUB] [Лицензия / iTunes] pb.wtf

Идём со мной через торрент pb.wtf

Размер: 3.06 GB | Добавлен: 4 года 3 мес. назад | Торрент скачан:408 раз
Скачать  

27-07-2016 19:51 Идём со мной Скачать торрент  

Информация о фильме

Название: Идём со мной

Оригинальное название: Blackway

Год выхода: 2015

Выпущено: США / Enderby Entertainment, Gotham Group, The

Продолжительность: 01:30:12

Озвучивание: Дублированное [iTunes]

Жанр: триллер

Режиссер: Даниэль Альфредсон

В ролях: Джулия Стайлз, Александр Людвиг, Энтони Хопкинс, Рэй Лиотта, Аарон Перл, Локлин Манро, Тэйлор Хиксон, Алекс Паунович, Хэл Холбрук, Стив Бачич

Описание: Лиллиан возвращается в родной город после учебы и становится жертвой сексуальных домогательств со стороны человека по имени Блэквэй. Когда девушка понимает, что полицейские порядки в городе не действуют, она обращается за помощью к друзьям: бывшему леснику и его приятелю. В процессе поиска они узнают, что Лиллиан — далеко не единственная жертва преступника. Услышав имя Блэквэя, жители городка испытывают страх и отказываются помогать, избегая общения. Джулия и её помощники остаются один на один с сумасшедшим преступником…


Файл

Качество: WEB-DL 1080p
Формат: MKV
Видео: MPEG-4 AVC, 4337 kb/s, 1920x804: 24.000 fps
Аудио: 48.0 KHz, AC3, 384 kb/s (6 ch)
Format : Matroska

Format version : Version 4 / Version 2

File size : 3.06 GiB

Duration : 1h 30mn

Overall bit rate : 4 853 Kbps

Encoded date : UTC 2016-07-13 18:50:35

Writing application : mkvmerge v8.3.0 ('Over the Horizon') 64bit

Writing library : libebml v1.3.1 + libmatroska v1.4.2

Video

ID : 1

Format : AVC

Format/Info : Advanced Video Codec

Format profile : High@L4

Format settings, CABAC : Yes

Format settings, ReFrames : 5 frames

Codec ID : V_MPEG4/ISO/AVC

Duration : 1h 30mn

Bit rate : 4 373 Kbps

Width : 1 920 pixels

Height : 804 pixels

Display aspect ratio : 2.40:1

Frame rate mode : Constant

Frame rate : 24.000 fps

Color space : YUV

Chroma subsampling : 4:2:0

Bit depth : 8 bits

Scan type : Progressive

Bits/(Pixel*Frame) : 0.118

Stream size : 2.75 GiB (90%)

Language : English

Default : Yes

Forced : No

Color range : Limited

Color primaries : BT.709

Transfer characteristics : BT.709

Matrix coefficients : BT.709

Audio

ID : 2

Format : AC-3

Format/Info : Audio Coding 3

Mode extension : CM (complete main)

Format settings, Endianness : Big

Codec ID : A_AC3

Duration : 1h 30mn

Bit rate mode : Constant

Bit rate : 384 Kbps

Channel(s) : 6 channels

Channel positions : Front: L C R, Side: L R, LFE

Sampling rate : 48.0 KHz

Bit depth : 16 bits

Compression mode : Lossy

Stream size : 248 MiB (8%)

Language : Russian

Default : Yes

Forced : No

Menu

00:00:00.000 : en:Глава 1

00:05:56.291 : en:Глава 2

00:11:28.499 : en:Глава 3

00:17:00.999 : en:Глава 4

00:22:36.290 : en:Глава 5

00:28:18.581 : en:Глава 6

00:33:54.456 : en:Глава 7

00:39:46.872 : en:Глава 8

00:45:31.330 : en:Глава 9

00:52:29.913 : en:Глава 10

00:58:29.204 : en:Глава 11

01:04:46.995 : en:Глава 12

01:10:35.036 : en:Глава 13

01:16:14.119 : en:Глава 14

01:22:25.577 : en:Глава 15
pb.wtf



Скачать Идём со мной через торрент http://i80.fastpic.ru/big/2016/0713/93/66ae7c1ac707c5695f50be57b96d0993.jpg Скачать фильм Идём со мной через торрент бесплантно в хорошем качестве Описание: Лиллиан возвращается в родной город после учебы и становится жертвой сексуальных домогательств со стороны человека по имени ... 8.4 10 14
Торрент: Зарегистрирован [2016-07-27 19:51] · скачан: 408 раз
Статус: √ проверено
Размер: 3.06 GB
Как cкачать? Как скачать Идём со мной через торрент | qTorrent

% Раздел Тема Автор DL S | L
Фильмы 2015 [DVDrip, WEB-DLRip, HDrip] [ 1.43 GB ] Идём со мной / Blackway [2015 HDRip ""] coc900 Скачать
1 | 0
Фильмы 2015 [DVDrip, WEB-DLRip, HDrip] [ 747 MB ] Идём со мной / Blackway [2015 HDRip] bober100 Скачать
1 | 0
Фильмы 2015 [DVDrip, WEB-DLRip, HDrip] [ 1.36 GB ] Идём со мной / Blackway [2015 WEB-DLRip] killermax2013 Скачать
2 | 0

28-11-2019 20:33  

Отключить всю рекламу на сайте

    Дорогой пользователь! Огромная просьба, поблагодарите релизера, оцените раздачу и оставьте свои комментарий, если Вы скачали Идём со мной через торрент бесплатно! Внесите свою лепту в развитие PiratBit!
    Комментировать посты могут только пользователи прошедшие не сложную регистрацию
    Показать сообщения:    

    Идём со мной через торрент
    Скачать бесплатно Идём со мной
    Идём со мной скачать торрент
    Идём со мной смотреть онлайн
    Cкачать фильм Идём со мной бесплатно
    Идём со мной скачать торрент в хорошем качестве
    Идём со мной смотреть онлайн бесплатно в хорошем качестве


    Вы не можете начинать темы
    Вы не можете отвечать на сообщения
    Вы не можете редактировать свои сообщения
    Вы не можете удалять свои сообщения
    Вы не можете голосовать в опросах
    Вы не можете прикреплять файлы к сообщениям
    Вы можете скачивать файлы