Всегда рабочее зеркало без VPN и Proxy просто перед .vidak.icu напиши любое слово или цифру, Пример http://e4bm.vidak.icu

MVO

2 сезон

1 сезон

1

1 сезон

iTunes

2 сезон

13

1 сезон

Deluxe

pack

Рекомендуем

Пиратка

30

ВАЖНО

RePack

MK11

RePack

jed

RePack

fifa19

RePack

RDR2

RePack

NEED FOR SPEED™ PAYBACK

Кинопоиск HD

6 сезон

 Острые козырьки 6 сезон

Все сериалы

все сериалы на PB.wtf

RePack

FAR CRY 5

Anonymous, нам критически не хватает 5601 руб. на оплату серверов и переферии за Апрель, помоги нам пожалуйста, вся надежда только на тебя. В благодарность мы отключим тебе всю рекламу на сайте!

×
  
Magnet ссылка

Деньги на двоих / Two for the Money (Д.Дж. Карузо / D.J. Caruso) [2005, Триллер, Драма, Спорт, BDRip] Dub + Sub (Rus, Eng) + Original Eng pb.wtf

Деньги на двоих через торрент pb.wtf

Размер: 2.57 GB | Добавлен: 5 лет 9 мес. назад | Торрент скачан:51 раз
Смотреть онлайн Деньги на двоих | Скачать    Ребята, помогите собрать деньги на оплату серверов!!!

28-07-2016 04:58 Деньги на двоих Скачать торрент  

Деньги на двоих / Two for the Money
«В теленовостях об этом не рассказывают. Правительство не может это запретить»
Страна: США
Жанр: Триллер, Драма, Спорт
Год выпуска: 2005
Продолжительность: 02:02:32
Перевод: Профессиональный (полное дублирование)
Cубтитры: Русские, Английские. (Отдельно)
Оригинальная аудиодорожка: английский (Отдельно)
Режиссер: Ди Джей Карузо / D.J. Caruso
В ролях: Аль Пачино /Al Pacino/, Мэттью МакКонахи /Matthew McConaughey/, Рене Руссо /Rene Russo/, Арманд Ассанте /Armand Assante/, Джереми Пивен /Jeremy Piven/, Джейми Кинг /Jaime King/, Кевин Чэпман /Kevin Chapman/, Ральф Гармен /Ralph Garman/, Чарлз Кэрролл /Charles Carroll/, Гедде Ватанабе /Gedde Watanabe/, Карли Поуп /Carly Pope/, Джерард Планкет /Gerard Plunkett/, Крэйг Верони /Craig Veroni/, Джеймс Кирк /James Kirk/, Крислин Остин /Chrislyn Austin/, Дениз Галик-Фёри /Denise Galik-Furey/, Гэри Хадсон /Gary Hudson/, Джереми Гилбо /Jeremy Guilbaut/, Уильям С. Тейлор /William S. Taylor/, Малкольм Скотт /Malcolm Scott/, Бэрри Хокберг /Barry Hochberg
Описание: Форвард успешной футбольной команды Брэндон, получив травму и навсегда распрощавшись со спортивной карьерой, вынужден искать иные способы заработка. Тут-то он и вспоминает знаменитого букмекера Уолтера, некогда предлагавшего Брэндону выгодные аферы, на которые звезда футбола всегда отвечал гордым отказом.

Уолтер, знающий наверняка, как легко и быстро приумножить капитал, заключает с экс-футболистом авантюрный договор. Жонглируя миллионами долларов, Брэндон и Уолтер вступают в опасную игру, где проигрыш подобен смерти. К ним в руки плывут бешеные деньги, но выдержит ли Боливар двоих?…
Доп. информация:


Качество видео: BDRip
Формат видео: AVI
Видео: 720x304 (2.37:1), 23.976 fps, XviD build 64 ~2095 kbps avg, 0.40 bit/pixel
Аудио: 48 kHz, AC3 Dolby Digital, 3/2 (L,C,R,l,r) + LFE ch, ~448.00 kbps avg | Дубляж
Размер файлов: 2235.84 Mb (1/2 DVD5)
Аудио 2: 48 kHz, AC3 Dolby Digital, 3/2 (L,C,R,l,r) + LFE ch, ~448.00 kbps avg | Английский отдельно
Формат субтитров: softsub (SRT) : Русские, Английские. | отдельно

Код:

Format                           : AVI
Format/Info                      : Audio Video Interleave
Format profile                   : OpenDML
File size                        : 2.18 GiB
Duration                         : 2h 2mn
Overall bit rate                 : 2 551 Kbps
Movie name                       : Деньги на двоих / Two for the Money (2005)
Director                         : MECHANICAL ENGINEER (BD-Remux)
Writing application              : VirtualDubMod 1.5.10.3 | www.virtualdub-fr.org || (build 2550/release)
Copyright                        : HQ-ViDEO
Comment                          : 15.10.2011

Video
ID                               : 0
Format                           : MPEG-4 Visual
Format profile                   : Advanced Simple@L5
Format settings, BVOP            : Yes
Format settings, QPel            : No
Format settings, GMC             : No warppoints
Format settings, Matrix          : Custom
Codec ID                         : XVID
Codec ID/Hint                    : XviD
Duration                         : 2h 2mn
Bit rate                         : 2 091 Kbps
Width                            : 720 pixels
Height                           : 304 pixels
Display aspect ratio             : 2.35:1
Frame rate                       : 23.976 fps
Color space                      : YUV
Chroma subsampling               : 4:2:0
Bit depth                        : 8 bits
Scan type                        : Progressive
Bits/(Pixel*Frame)               : 0.398
Stream size                      : 1.79 GiB (82%)
Writing library                  : XviD 64

Audio
ID                               : 1
Format                           : AC-3
Format/Info                      : Audio Coding 3
Mode extension                   : CM (complete main)
Codec ID                         : 2000
Duration                         : 2h 2mn
Bit rate mode                    : Constant
Bit rate                         : 448 Kbps
Channel(s)                       : 6 channels
Channel positions                : Front: L C R, Side: L R, LFE
Sampling rate                    : 48.0 KHz
Bit depth                        : 16 bits
Stream size                      : 393 MiB (18%)
Alignment                        : Split accross interleaves
Interleave, duration             : 42 ms (1.00 video frame)
Interleave, preload duration     : 500 ms

pb.wtf



Скачать Деньги на двоих через торрент http://i58.fastpic.ru/big/2013/1128/89/58ab20d6548627d1ac0d8855db13d089.jpg Скачать, смотреть онлайн Деньги на двоих бесплантно в хорошем качестве Описание: Форвард успешной футбольной команды Брэндон, получив травму и навсегда распрощавшись со спортивной карьерой, вынужден искать иные ... 10 10 1
Торрент: Зарегистрирован [2016-07-28 04:58] · скачан: 51 раз
Статус: T временная
Размер: 2.57 GB
Как cкачать? Как скачать Деньги на двоих через торрент | UTorrent

% Раздел Тема Автор DL S | L
Фильмы [HD 720p, 1080p] (Хороший звук DUB, MVO) [ 8.49 GB ] Деньги на двоих / Two for the Money [2005 BDRip 1080p от _denis_100 | NNNB] DUB + AVO + Original + Sub _denis_100 Скачать
1 | 0

28-11-2019 20:33  

Отключить всю рекламу на сайте

    Дорогой пользователь! Огромная просьба, поблагодарите релизера, оцените раздачу и оставьте свои комментарий, если Вы скачали Деньги на двоих через торрент бесплатно!
    Комментировать посты могут только пользователи прошедшие не сложную регистрацию
    Показать сообщения:    

    Деньги на двоих через торрент
    Скачать бесплатно Деньги на двоих
    Деньги на двоих скачать торрент
    Деньги на двоих смотреть онлайн
    Cкачать фильм Деньги на двоих бесплатно
    Деньги на двоих скачать торрент в хорошем качестве
    Деньги на двоих смотреть онлайн бесплатно в хорошем качестве


    Вы не можете начинать темы
    Вы не можете отвечать на сообщения
    Вы не можете редактировать свои сообщения
    Вы не можете удалять свои сообщения
    Вы не можете голосовать в опросах
    Вы не можете прикреплять файлы к сообщениям
    Вы можете скачивать файлы