Ссылка на приватное зеркало всего за 1$. Внимание количество ограничено!!!

OK

1+1

iTunes

мы

OK

1

WEB-DLRip

Джокер

Пифагор

Ведьмак / The Witcher сериал

Лицензия

ПШазам

ОК

Оно 2

iTunes

30
pack

Вам бонус

ВАЖНО

!!Акция!!

Alien_RageХит недели

RePack

Resident Evil 21

ИГРА 18+

pack

RePack

jed

RePack

fifa19

RePack

Assassins Creed: Odyssey

RePack

NEED FOR SPEED™ PAYBACK

4 сезон

9 сезон

Бесстыжие 9 сезон

Все сериалы

все сериалы на PB.wtf

RePack

FAR CRY 5
  

Заключенный Р / R (Тобиас Линдхольм, Майкл Ноер) [2010 г., драма, криминал, BDRip] MVO pb.wtf

Заключенный Р через торрент pb.wtf

Размер: 1.45 GB | Добавлен: 3 года 5 мес. назад | Торрент скачан:107 раз
Скачать  

28-07-2016 16:09 Заключенный Р Скачать торрент  

Заключенный Р / R
Год выпуска: 2010
Страна: Дания
Жанр: драма, криминал
Продолжительность: 01:36:02
Перевод: Профессиональный (многоголосый)

Режиссер: Тобиас Линдхольм, Майкл Ноер
Продюссер: Рене Эзра, Томас Радур, Ким Магнуссон
Сценарий: Тобиас Линдхольм, Михаэль Ноер

Бюджет: DKK 4 755 000
Премьера в мире: 8 апреля 2010



В ролях: Йохан Филип Асбек, Дулфи Аль-Джабоури, Роланд Мюллер, Джэкоб Гредстед, Ким Уинтер, Омар Шаргави, Суне Норгаард

Описание: В тюрьму, известную на всю Данию своими жесткими условиями содержания, прибывает заключенный по имени Р. Здесь он будет отбывать срок за насилие. Тюрьма - это параллельный мир, со своими правилами, понятиями о чести и обязанностями. Тут на окнах - решетки, а пол залит кровью. Р помещают в отсек к самым агрессивным зекам. Здесь ему предстоит найти свое место, научиться перемещаться и бороться за выживание.

Качество: BDRip
Формат: AVI
Видео кодек: XviD
Аудио кодек: AC3
Видео: XviD, 720x400, 25 fps, 1705 kbps
Аудио: AC3, 448 kbps, 5.1 ch, 48 kHz
Релиз от: Koenig




Общее
Полное имя : R.2010.BDRip.avi
Формат : AVI
Формат/Информация : Audio Video Interleave
Размер файла : 1,45 Гбайт
Продолжительность : 1 ч. 36 м.
Общий поток : 2162 Кбит/сек
Программа кодирования : VirtualDubMod 1.5.10.2 (build 2540/release)
Библиотека кодирования : VirtualDubMod build 2540/release

Видео
Идентификатор : 0
Формат : MPEG-4 Visual
Профиль формата : Advanced Simple@L5
Параметр BVOP формата : 1
Параметр QPel формата : Да
Параметр GMC формата : Без точки перехода
Параметр матрицы формата : Default (H.263)
Идентификатор кодека : XVID
Идентификатор кодека/Подсказка : XviD
Продолжительность : 1 ч. 36 м.
Битрейт : 1705 Кбит/сек
Ширина : 720 пикселей
Высота : 400 пикселей
Соотношение сторон : 16:9
Частота кадров : 25,000 кадров/сек
Цветовое пространство : YUV
Субдискретизация насыщенности : 4:2:0
Битовая глубина : 8 бит
Тип развёртки : Прогрессивная
Метод сжатия : С потерями
Бит/(Пиксели*Кадры) : 0.237
Размер потока : 1,14 Гбайт (79%)
Библиотека кодирования : XviD 1.2.0.dev47 (UTC 2006-11-01)

Аудио
Идентификатор : 1
Формат : AC-3
Формат/Информация : Audio Coding 3
Расширение режима : CM (complete main)
Параметр Endianness формата : Big
Идентификатор кодека : 2000
Продолжительность : 1 ч. 35 м.
Вид битрейта : Постоянный
Битрейт : 448 Кбит/сек
Каналы : 6 каналов
Расположение каналов : Front: L C R, Side: L R, LFE
Частота : 48,0 КГц
Метод сжатия : С потерями
Размер потока : 307 Мбайт (21%)
Выравнивание : Разделение по промежуткам
Продолжительность промежутка : 40 мс. (1,00 видеокадр)
Время предзагрузки промежутка : 500 мс.

Заключенный Р скачать торрент

pb.wtf



Скачать Заключенный Р через торрент http://pic.kartinco.top/images/11/tu1bs.jpg Скачать фильм Заключенный Р через торрент бесплантно в хорошем качестве Описание: В тюрьму, известную на всю Данию своими жесткими условиями содержания, прибывает заключенный по имени Р. Здесь он будет отбывать ... 10 10 1
Торрент: Зарегистрирован [2016-07-28 16:09] · скачан: 107 раз
Статус: √ проверено
Размер: 1.45 GB
Как cкачать? Как скачать Заключенный Р через торрент | qTorrent



Последний раз редактировалось: koenig (2016-07-28 16:17), всего редактировалось 1 раз

28-11-2019 20:33  

Отключить всю рекламу на сайте


    Дорогой пользователь! Огромная просьба, поблагодарите релизера, оцените раздачу и оставьте свои комментарий, если Вы скачали Заключенный Р через торрент бесплатно! Внесите свою лепту в развитие PiratBit!
    Комментировать посты могут только пользователи прошедшие не сложную регистрацию
    Показать сообщения:    

    Заключенный Р через торрент
    Скачать бесплатно Заключенный Р
    Заключенный Р скачать торрент
    Заключенный Р смотреть онлайн
    Cкачать фильм Заключенный Р бесплатно
    Заключенный Р скачать торрент в хорошем качестве
    Заключенный Р смотреть онлайн бесплатно в хорошем качестве


    Вы не можете начинать темы
    Вы не можете отвечать на сообщения
    Вы не можете редактировать свои сообщения
    Вы не можете удалять свои сообщения
    Вы не можете голосовать в опросах
    Вы не можете прикреплять файлы к сообщениям
    Вы можете скачивать файлы