Ссылка на приватное зеркало нашего сайта всего за 1$. Внимание количество ограничено!!!

2 сезон

iTunes

1 сезон

1

iTunes

iTunes

iTunes

1 сезон

RePack

30

ИГРА 18+

pack

ВАЖНО

!!Акция!!

Alien_RageХит недели

RePack

MK11
pack

Забери бонус

RePack

jed

!!Акция!!

Alien_Rage

RePack

fifa19

RePack

Assassins Creed: Odyssey

RePack

NEED FOR SPEED™ PAYBACK

4 сезон

9 сезон

Бесстыжие 9 сезон

Все сериалы

все сериалы на PB.wtf

RePack

FAR CRY 5
  

Вымирание / Extinction (Мигель Анхель Вивас / Miguel Ángel Vivas ) [2015, ужасы, фантастика, драма, BDRip-AVC от potroks] MVO [iTunes] pb.wtf

Вымирание через торрент pb.wtf

Размер: 2.13 GB | Добавлен: 4 года 2 мес. назад | Торрент скачан:715 раз
Скачать  

28-07-2016 18:15 Вымирание Скачать торрент  

Вымирание / Extinction
«They are the last»
Год выпуска: 2015
Страна: Испания, США, Венгрия, Франция / Vaca Films, Ombra Films...
Жанр: ужасы, фантастика, драма
Продолжительность: 01:52:59
Перевод: Профессиональный (многоголосый) [iTunes]
Субтитры: русские, украинские, английские
Навигация по главам: есть
Режиссер: Мигель Анхель Вивас / Miguel Ángel Vivas
В ролях:

Мэттью Фокс (Patrick), Джеффри Донован (Jack), Куинн Маккоулган (Lu), Валерия Веро (Emma), Клара Лаго (Woman), Eduardo Fedriani (Creature 1), Мэтт Девере (Soldier 1), Алекс Хафнер (Soldier 2), Джереми Вилер (Bus Driver), Katharine Bubbear (Young Girl), Daniel Bargueño (Creature 2), Орсоля Бене (Woman on Bus 2)
Описание: После нескольких сотен тысяч лет эволюции и превосходства, люди были почти стерты с лица Земли. В течение всего лишь нескольких дней инфекция превратила их в диких существ без интеллекта, они стали злыми и безжалостными. Через семь лет после этого, мы находим небольшой городок - Harmony, покрытый многолетними снегами. Двое мужчин, давние друзья Патрик и Джек, и дочь Джека, Лу, - единственные оставшиеся в живых. Тем не менее, они не общаются или даже не признают друг друга. Что-то ужасное произошло между ними и глубокая неумолимая ненависть прекратила их дружбу давным-давно.

Качество: BDRip-AVC
Формат: MKV
Видео кодек: AVC
Аудио кодек: AC3
Видео: 1108x464 (2.40:1), 1867 kbps, 24 fps, 0.151 bit/pixel
Аудио#1: AC3 / 5.1 / 48 kHz / 384 kbps / 16 bit | RUS
Аудио#2: AC3 / 5.1 / 48 kHz / 448 kbps / 16 bit | ENG

Код:

Общее
Уникальный идентификатор : 239258408664513626755297628164333292572 (0xB3FF7E4D74070182980ED8718268CC1C)
Полное имя : Vymiraniye.2015.DUAL.BDRip.x264.-HELLYWOOD.mkv
Формат : Matroska
Версия формата : Version 4 / Version 2
Размер файла : 2,13 Гбайт
Продолжительность : 1 ч. 52 м.
Общий поток : 2700 Кбит/сек
Название фильма : Extinction (2015) - HELLYWOOD
Дата кодирования : UTC 2010-02-22 21:41:31
Программа кодирования : mkvmerge v5.8.0 ('No Sleep / Pillow') built on Sep 30 2012 10:57:14
Библиотека кодирования : libebml v1.3.0 + libmatroska v1.4.0

Видео
Идентификатор : 1
Формат : AVC
Формат/Информация : Advanced Video Codec
Профиль формата : High@L4.1
Параметр CABAC формата : Да
Параметр ReFrames формата : 10 кадров
Идентификатор кодека : V_MPEG4/ISO/AVC
Продолжительность : 1 ч. 52 м.
Битрейт : 1867 Кбит/сек
Ширина : 1108 пикселей
Высота : 464 пикселя
Соотношение сторон : 2,40:1
Режим частоты кадров : Постоянный
Частота кадров : 24,000 кадра/сек
Цветовое пространство : YUV
Субдискретизация насыщенности : 4:2:0
Битовая глубина : 8 бит
Тип развёртки : Прогрессивная
Бит/(Пиксели*Кадры) : 0.151
Размер потока : 1,43 Гбайт (67%)
Заголовок : potroks
Библиотека кодирования : x264 core 146 r2538 121396c
Настройки программы : cabac=1 / ref=10 / deblock=1:-2:-2 / analyse=0x3:0x113 / me=umh / subme=11 / psy=1 / psy_rd=1.03:0.08 / mixed_ref=1 / me_range=48 / chroma_me=1 / trellis=2 / 8x8dct=1 / cqm=0 / deadzone=21,11 / fast_pskip=0 / chroma_qp_offset=-3 / threads=9 / lookahead_threads=2 / sliced_threads=0 / nr=0 / decimate=0 / interlaced=0 / bluray_compat=0 / constrained_intra=0 / bframes=11 / b_pyramid=2 / b_adapt=2 / b_bias=0 / direct=3 / weightb=1 / open_gop=0 / weightp=2 / keyint=250 / keyint_min=23 / scenecut=40 / intra_refresh=0 / rc_lookahead=60 / rc=2pass / mbtree=0 / bitrate=1867 / ratetol=1.0 / qcomp=0.70 / qpmin=0 / qpmax=69 / qpstep=4 / cplxblur=20.0 / qblur=0.5 / vbv_maxrate=14000 / vbv_bufsize=14000 / nal_hrd=none / filler=0 / ip_ratio=1.35 / pb_ratio=1.25 / aq=1:0.80
Язык : English
Default : Да
Forced : Нет

Аудио #1
Идентификатор : 2
Формат : AC-3
Формат/Информация : Audio Coding 3
Расширение режима : CM (complete main)
Параметр Endianness формата : Big
Идентификатор кодека : A_AC3
Продолжительность : 1 ч. 52 м.
Вид битрейта : Постоянный
Битрейт : 384 Кбит/сек
Каналы : 6 каналов
Расположение каналов : Front: L C R, Side: L R, LFE
Частота : 48,0 КГц
Частота кадров : 31,250 кадров/сек (1536 spf)
Метод сжатия : С потерями
Размер потока : 310 Мбайт (14%)
Заголовок : MVO | DD 5.1 @ 384 kbps - iTunes
Язык : Russian
Default : Да
Forced : Нет

Аудио #2
Идентификатор : 3
Формат : AC-3
Формат/Информация : Audio Coding 3
Расширение режима : CM (complete main)
Параметр Endianness формата : Big
Идентификатор кодека : A_AC3
Продолжительность : 1 ч. 52 м.
Вид битрейта : Постоянный
Битрейт : 448 Кбит/сек
Каналы : 6 каналов
Расположение каналов : Front: L C R, Side: L R, LFE
Частота : 48,0 КГц
Частота кадров : 31,250 кадров/сек (1536 spf)
Метод сжатия : С потерями
Размер потока : 362 Мбайт (17%)
Заголовок : Original | DD 5.1 @ 448 kbps
Язык : English
Default : Нет
Forced : Нет

Текст #1
Идентификатор : 4
Формат : UTF-8
Идентификатор кодека : S_TEXT/UTF8
Идентификатор кодека/Информация : UTF-8 Plain Text
Язык : Russian
Default : Нет
Forced : Нет

Текст #2
Идентификатор : 5
Формат : UTF-8
Идентификатор кодека : S_TEXT/UTF8
Идентификатор кодека/Информация : UTF-8 Plain Text
Язык : Ukrainian
Default : Нет
Forced : Нет

Текст #3
Идентификатор : 6
Формат : UTF-8
Идентификатор кодека : S_TEXT/UTF8
Идентификатор кодека/Информация : UTF-8 Plain Text
Язык : English
Default : Нет
Forced : Нет

Меню
00:00:00.000 : en:(01)00:00:00:000
00:10:15.291 : en:(02)00:10:15:291
00:19:38.541 : en:(03)00:19:38:541
00:29:22.500 : en:(04)00:29:22:500
00:36:58.375 : en:(05)00:36:58:375
00:44:57.500 : en:(06)00:44:57:500
00:54:09.750 : en:(07)00:54:09:750
01:01:48.541 : en:(08)01:01:48:541
01:12:16.000 : en:(09)01:12:16:000
01:21:38.000 : en:(10)01:21:38:000
01:29:42.125 : en:(11)01:29:42:125
01:38:28.500 : en:(12)01:38:28:500
01:46:31.000 : en:(13)01:46:31:000

pb.wtf



Скачать Вымирание через торрент http://i76.fastpic.ru/big/2015/1207/f9/80eeffc1d7c928079cf780e3719a60f9.png Скачать фильм Вымирание через торрент бесплантно в хорошем качестве Описание: После нескольких сотен тысяч лет эволюции и превосходства, люди были почти стерты с лица Земли. В течение всего лишь нескольких ... 9.5 10 21
Info! Золотая раздача, скачанное не засчитывается.
Торрент: Зарегистрирован [2016-07-28 18:15] · скачан: 715 раз
Статус: √ проверено
Размер: 2.13 GB
Как cкачать? Как скачать Вымирание через торрент | qTorrent

% Раздел Тема Автор DL S | L
T Фильмы (мультфильмы) cо спонсором показа (Новинки AVI/MKV) [ 1.31 GB ] Шангри-Ла: На грани вымирания / Shangri-La: Near Extinction [2018 WEB-DLRip Любительский ] oleg8 Скачать
1 | 0
Документальные фильмы и телепередачи [ 2.68 GB ] Гонка на вымирание / Racing Extinction [2015 документальный BDRip 720p] [многоголосый]] max199200 Скачать
1 | 0
Фильмы 2015 [DVDrip, WEB-DLRip, HDrip] [ 1.41 GB ] Вымирание / Extinction [2015 BDRip-AVC] MVO potroks Скачать
1 | 0
Фильмы 2015 [DVDrip, WEB-DLRip, HDrip] [ 1.41 GB ] Вымирание / Extinction [2015 Испания Венгрия BDRip] MVO Twi7ter Скачать
1 | 0
R.G. Resident & PiratVoice - Фильмы, Видео [ 7.94 GB ] Вымирание / Extinction [2015 BDRip 1080p многоголосый R.G.Resident schultz Скачать
1 | 0
Документальные фильмы и телепередачи [ 1.45 GB ] Гонка на вымирание / Racing Extinction [2015 документальный BDRip-AVC от _denis_100 / NNNB] MVO _denis_100 Скачать
1 | 0
Документальные фильмы и телепередачи [ 3.74 GB ] Гонка на вымирание / Racing Extinction [2015 документальный BDRip 720p от _denis_100 / NNNB] многоголосый _denis_100 Скачать
1 | 0

28-11-2019 20:33  

Отключить всю рекламу на сайте

08-11-2016 17:12 Вымирание Скачать торрент  

очень даже ничего такое кино, рекомендуюpb.wtf



    Дорогой пользователь! Огромная просьба, поблагодарите релизера, оцените раздачу и оставьте свои комментарий, если Вы скачали Вымирание через торрент бесплатно! Внесите свою лепту в развитие PiratBit!
    Комментировать посты могут только пользователи прошедшие не сложную регистрацию
    Показать сообщения:    

    Вымирание через торрент
    Скачать бесплатно Вымирание
    Вымирание скачать торрент
    Вымирание смотреть онлайн
    Cкачать фильм Вымирание бесплатно
    Вымирание скачать торрент в хорошем качестве
    Вымирание смотреть онлайн бесплатно в хорошем качестве


    Вы не можете начинать темы
    Вы не можете отвечать на сообщения
    Вы не можете редактировать свои сообщения
    Вы не можете удалять свои сообщения
    Вы не можете голосовать в опросах
    Вы не можете прикреплять файлы к сообщениям
    Вы можете скачивать файлы