Ссылка на приватное зеркало всего за 1$. Внимание количество ограничено!!!

OK

1+1

iTunes

мы

OK

1

WEB-DLRip

Джокер

Пифагор

Ведьмак / The Witcher сериал

Лицензия

ПШазам

ОК

Оно 2

iTunes

30
pack

Вам бонус

ВАЖНО

!!Акция!!

Alien_RageХит недели

RePack

Resident Evil 21

ИГРА 18+

pack

RePack

jed

!!Акция!!

Alien_Rage

RePack

fifa19

RePack

Assassins Creed: Odyssey

RePack

NEED FOR SPEED™ PAYBACK

4 сезон

9 сезон

Бесстыжие 9 сезон

Все сериалы

все сериалы на PB.wtf

RePack

FAR CRY 5
  

Белоснежка и Охотник 2 / The Huntsman: Winter's War (Седрик Николя-Троян) [2016 г., Фэнтези, боевик, драма, приключения, BDRip 720p] DUB [iTunes] pb.wtf

Белоснежка и Охотник 2 через торрент pb.wtf

Размер: 5.86 GB | Добавлен: 3 года 5 мес. назад | Торрент скачан:578 раз
Скачать  

29-07-2016 09:50 Белоснежка и Охотник 2 Скачать торрент  

The Huntsman: Winter's War«The story before Snow White»

Год выпуска » 2016
Страна » США
Жанр » Фэнтези, боевик, драма, приключения
Продолжительность » 01:53:57
Перевод » Профессиональный (полное дублирование) [iTunes]
Субтитры » Английские

В ролях
» Крис Хемсворт, Эмили Блант, Джессика Честейн, Шарлиз Терон, Сэм Клафлин, Шеридан Смит, Колин Морган, Софи Куксон, Ник Фрост, Роб Брайдон


Режиссёр
» Седрик Николя-Троян

» Когда Равенна и её сестра, ледяная королева Фрейя, готовятся завоевать Землю, два перебежчика — охотник Эрик, ранее помогший Белоснежке победить Равенну, и его запретная возлюбленная Сара — намерены остановить их.

• Качество » BDRip 720p
• Формат » mkv
• Видео кодек » AVC
• Аудио кодек » AC3,DTS
• Видео »MPEG-4 AVC, 5319 Кбит/с,1280x536,23.976 fps
• Аудио » Русский (AC-3 / 6 ch / 384 kbps / 48,0 КГц / 16 bit )
• Аудио » Английский (DTS / 6 ch / 1510 kbps / 48,0 КГц / 16 bit)



Бюджет: $115 000 000
Сборы в США: $48 003 015
Сборы в мире: + $116 599 148 = $164 602 163
Сборы в России: $3 832 682
Дата мировой премьеры: 29 марта 2016
Дата российской премьеры: 14 апреля 2016, «UPI»
Общее
Уникальный идентификатор : 232043193068808763590759837618513717226 (0xAE91E4B55AA9B2DEB1CC280E21D527EA)
Полное имя : E:\BeLoSNeGo.I.Huner.2.THEATRICAL.2O16.D.BDRip.72OP.mkv
Формат : Matroska
Версия формата : Version 2
Размер файла : 5,86 Гбайт
Продолжительность : 1 ч. 53 м.
Общий поток : 7359 Кбит/сек
Дата кодирования : UTC 2016-07-28 17:40:35
Программа кодирования : mkvmerge v8.3.0 ('Over the Horizon') 64bit
Библиотека кодирования : libebml v1.3.1 + libmatroska v1.4.2
DURATION : 01:53:57.539000000
NUMBER_OF_FRAMES : 163937
NUMBER_OF_BYTES : 4635433056
_STATISTICS_WRITING_APP : mkvmerge v8.3.0 ('Over the Horizon') 64bit
_STATISTICS_WRITING_DATE_UTC : 2016-07-28 17:40:35
_STATISTICS_TAGS : BPS DURATION NUMBER_OF_FRAMES NUMBER_OF_BYTES

Видео
Идентификатор : 1
Формат : AVC
Формат/Информация : Advanced Video Codec
Профиль формата : High@L4.1
Параметр CABAC формата : Да
Параметр ReFrames формата : 4 кадра
Идентификатор кодека : V_MPEG4/ISO/AVC
Продолжительность : 1 ч. 53 м.
Битрейт : 5319 Кбит/сек
Ширина : 1280 пикселей
Высота : 536 пикселей
Соотношение сторон : 2,40:1
Режим частоты кадров : Постоянный
Частота кадров : 23,976 кадра/сек
Цветовое пространство : YUV
Субдискретизация насыщенности : 4:2:0
Битовая глубина : 8 бит
Тип развёртки : Прогрессивная
Бит/(Пиксели*Кадры) : 0.323
Размер потока : 4,23 Гбайт (72%)
Default : Да
Forced : Нет

Аудио #1
Идентификатор : 2
Формат : AC-3
Формат/Информация : Audio Coding 3
Расширение режима : CM (complete main)
Параметр Endianness формата : Big
Идентификатор кодека : A_AC3
Продолжительность : 1 ч. 53 м.
Вид битрейта : Постоянный
Битрейт : 384 Кбит/сек
Каналы : 6 каналов
Расположение каналов : Front: L C R, Side: L R, LFE
Частота : 48,0 КГц
Битовая глубина : 16 бит
Метод сжатия : С потерями
Задержка видео : 24 мс.
Размер потока : 313 Мбайт (5%)
Язык : Russian
Default : Да
Forced : Да

Аудио #2
Идентификатор : 3
Формат : DTS
Формат/Информация : Digital Theater Systems
Режим : 16
Параметр Endianness формата : Big
Идентификатор кодека : A_DTS
Продолжительность : 1 ч. 53 м.
Вид битрейта : Постоянный
Битрейт : 1509 Кбит/сек
Каналы : 6 каналов
Расположение каналов : Front: L C R, Side: L R, LFE
Частота : 48,0 КГц
Битовая глубина : 24 бит
Метод сжатия : С потерями
Размер потока : 1,20 Гбайт (21%)
Язык : English
Default : Нет
Forced : Нет

Текст #1
Идентификатор : 4
Формат : PGS
Режим смешивания : zlib
Идентификатор кодека : S_HDMV/PGS
Идентификатор кодека/Информация : The same subtitle format used on BDs/HD-DVDs
Язык : English
Default : Нет
Forced : Нет

Текст #2
Идентификатор : 5
Формат : PGS
Режим смешивания : zlib
Идентификатор кодека : S_HDMV/PGS
Идентификатор кодека/Информация : The same subtitle format used on BDs/HD-DVDs
Язык : English
Default : Нет
Forced : Нет

Текст #3
Идентификатор : 6
Формат : PGS
Режим смешивания : zlib
Идентификатор кодека : S_HDMV/PGS
Идентификатор кодека/Информация : The same subtitle format used on BDs/HD-DVDs
Язык : English
Default : Нет
Forced : Нет

Меню
00:00:00.000 : en:
00:06:26.427 : en:
00:09:26.857 : en:
00:15:03.193 : en:
00:21:33.500 : en:
00:26:52.235 : en:
00:32:34.744 : en:
00:36:51.167 : en:
00:42:17.952 : en:
00:47:27.261 : en:
00:54:37.816 : en:
00:59:26.229 : en:
01:06:18.974 : en:
01:10:21.508 : en:
01:17:45.118 : en:
01:23:17.492 : en:
01:28:06.864 : en:
01:33:28.811 : en:
01:42:20.759 : en:
01:44:26.426 : en:
[/code]
скриншот   скриншот   скриншот  
pb.wtf
KВорон писал(а):

T временная
Отсутствуют настройки кодирования. Сцен-рип!



Скачать Белоснежка и Охотник 2 через торрент http://pic1.kartinco.top/images/10/wttgh.jpg Скачать фильм Белоснежка и Охотник 2 через торрент бесплантно в хорошем качестве В ролях » Крис Хемсворт, Эмили Блант, Джессика Честейн, Шарлиз Терон, Сэм Клафлин, Шеридан Смит, Колин Морган, Софи Куксон, Ник Фрост, Роб ... 10 10 14
Торрент: Зарегистрирован [2016-07-29 09:50] · скачан: 578 раз
Статус: T временная
Размер: 5.86 GB
Как cкачать? Как скачать Белоснежка и Охотник 2 через торрент | qTorrent

28-11-2019 20:33  

Отключить всю рекламу на сайте

    Дорогой пользователь! Огромная просьба, поблагодарите релизера, оцените раздачу и оставьте свои комментарий, если Вы скачали Белоснежка и Охотник 2 через торрент бесплатно! Внесите свою лепту в развитие PiratBit!
    Комментировать посты могут только пользователи прошедшие не сложную регистрацию
    Показать сообщения:    

    Белоснежка и Охотник 2 через торрент
    Скачать бесплатно Белоснежка и Охотник 2
    Белоснежка и Охотник 2 скачать торрент
    Белоснежка и Охотник 2 смотреть онлайн
    Cкачать фильм Белоснежка и Охотник 2 бесплатно
    Белоснежка и Охотник 2 скачать торрент в хорошем качестве
    Белоснежка и Охотник 2 смотреть онлайн бесплатно в хорошем качестве


    Вы не можете начинать темы
    Вы не можете отвечать на сообщения
    Вы не можете редактировать свои сообщения
    Вы не можете удалять свои сообщения
    Вы не можете голосовать в опросах
    Вы не можете прикреплять файлы к сообщениям
    Вы можете скачивать файлы