2 сезон

iTunes

MVO

1

2 сезон

iTunes

iTunes

1 сезон

RePack

30

Новинка

ВАЖНО

ИГРА 18+

pack

RePack

MK11
pack

Легкие деньги

RePack

jed

RePack

fifa19

RePack

RDR2

RePack

NEED FOR SPEED™ PAYBACK

4 сезон

9 сезон

Бесстыжие 9 сезон

Все сериалы

все сериалы на PB.wtf

RePack

FAR CRY 5

Anonymous, доброй ночи, мы не успеваем собрать деньги на оплату серверов за декабрь и январь, помогите нам пожалуйста в это трудное время. В качестве благодарности мы отключим Вам всю рекламу на сайте (укажите свой ник в строку Ваше имя)!

×
  
Magnet ссылка

Девочка на велосипеде / Girl on a Bicycle (Джереми Левин) [2013, драма, комедия, мелодрама, BDRip] MVO pb.wtf

Девочка на велосипеде через торрент pb.wtf

Размер: 749 MB | Добавлен: 4 года 5 мес. назад | Торрент скачан:289 раз
Скачать  

30-07-2016 04:55 Девочка на велосипеде Скачать торрент  

Девочка на велосипеде / Girl on a Bicycle
Год выпуска: 2013
Страна: США, Германия, Франция
Жанр: драма, комедия, мелодрама
Продолжительность: 01:41:12
Перевод: Профессиональный (многоголосый)

Режиссер: Джереми Левин
Продюссер: Квирин Берг, Джереми Левин, Макс Видерманн
Сценарий: Джереми Левин

Бюджет: $91 401
Премьера в мире: 7 марта 2013

R - Детям до 17 лет обязательно присутствие родителей


В ролях: Винченцо Амато, Нора Чирнер, Пэдди Консидайн, Луиз Моно, Стефан Дебак, Брайс Форнье, Келли Ширли, Орелин Каво, Кристин Ситти, Кьяра де Лука

Описание: Итальянец Паоло — водитель автобуса, который развозит туристов по Парижу. Его цель: познакомить других (и себя в том числе) с французской столицей. Кроме того, у Паоло есть и другие планы на жизнь. Он хочет добиться любви немецкой стюардессы Греты. Казалось, он уже готов сделать ей предложение руки и сердца, если бы не девушка на велосипеде, встреча с которой навсегда переворачивает жизнь итальянца. Обворожительная француженка Сесиль — одинокая мать, модель. Встреча с ней не выходит из головы Паоло. При этом он любит Грету. Тогда его лучший друг Дерек, британский сердцеед, дает ему роковой совет…

Качество: BDRip
Формат: AVI
Видео кодек: XviD
Аудио кодек: MP3
Видео: XviD, 688х296, 897 Кбит/с, 24.000 кадр/с
Аудио: MP3, 2 ch, 128 Кбит/с, 48 kHz
Релиз от: Koenig
Общее
Полное имя : Girl.On.a.Bicycle.2013.BDRip.avi
Формат : AVI
Формат/Информация : Audio Video Interleave
Размер файла : 749 Мбайт
Продолжительность : 1 ч. 41 м.
Общий поток : 1034 Кбит/сек
Программа кодирования : VirtualDubMod 1.5.10.2 (build 2540/release)
Библиотека кодирования : VirtualDubMod build 2540/release

Видео
Идентификатор : 0
Формат : MPEG-4 Visual
Профиль формата : Advanced Simple@L5
Параметр BVOP формата : 1
Параметр QPel формата : Нет
Параметр GMC формата : Без точки перехода
Параметр матрицы формата : Default (H.263)
Идентификатор кодека : XVID
Идентификатор кодека/Подсказка : XviD
Продолжительность : 1 ч. 41 м.
Битрейт : 897 Кбит/сек
Ширина : 688 пикселей
Высота : 296 пикселей
Соотношение сторон : 2,35:1
Частота кадров : 24,000 кадра/сек
Цветовое пространство : YUV
Субдискретизация насыщенности : 4:2:0
Битовая глубина : 8 бит
Тип развёртки : Прогрессивная
Метод сжатия : С потерями
Бит/(Пиксели*Кадры) : 0.184
Размер потока : 649 Мбайт (87%)
Библиотека кодирования : XviD 1.2.0.dev47 (UTC 2006-11-01)

Аудио
Идентификатор : 1
Формат : MPEG Audio
Версия формата : Version 1
Профиль формата : Layer 3
Идентификатор кодека : 55
Идентификатор кодека/Подсказка : MP3
Продолжительность : 1 ч. 41 м.
Вид битрейта : Постоянный
Битрейт : 128 Кбит/сек
Каналы : 2 канала
Частота : 48,0 КГц
Метод сжатия : С потерями
Размер потока : 92,6 Мбайт (12%)
Выравнивание : Соединение по промежуткам
Продолжительность промежутка : 42 мс. (1,00 видеокадр)
Время предзагрузки промежутка : 504 мс.
Библиотека кодирования : LAME3.99r
Настройки программы : -m s -V 4 -q 3 -lowpass 17 -b 128

Девочка на велосипеде скачать торрент

pb.wtf



Скачать Девочка на велосипеде через торрент http://pic.kartinco.top/images/11/r8cv5.jpg Скачать фильм Девочка на велосипеде через торрент бесплантно в хорошем качестве Описание: Итальянец Паоло — водитель автобуса, который развозит туристов по Парижу. Его цель: познакомить других (и себя в том числе) с ... 7.6 10 11
Торрент: Зарегистрирован [2016-07-30 04:55] · скачан: 289 раз
Статус: √ проверено
Размер: 749 MB
Как cкачать? Как скачать Девочка на велосипеде через торрент | UTorrent

% Раздел Тема Автор DL S | L
Фильмы [HD 720p, 1080p] (Хороший звук DUB, MVO) [ 3.92 GB ] Девочка на велосипеде / Girl on a Bicycle [2013 BDRip 720p] MVO koenig Скачать
1 | 0

28-11-2019 20:33  

Отключить всю рекламу на сайте

30-07-2016 05:14 Девочка на велосипеде Скачать торрент  

спасибо, думаю стоит глянуть.pb.wtf



30-07-2016 06:58 Девочка на велосипеде Скачать торрент  

ТаможеНик писал(а):

спасибо, думаю стоит глянуть.

И было бы здорово после "глядения"оставить своё мнение.pb.wtf



30-07-2016 10:44 Девочка на велосипеде Скачать торрент  

ТаможеНик писал(а):

спасибо, думаю стоит глянуть.

Посмотрел и как стоит просмотра?pb.wtf



02-08-2016 17:46 Девочка на велосипеде Скачать торрент  

А я посмотрел.Лёгкая и хорошая комедия.pb.wtf



    Дорогой пользователь! Огромная просьба, поблагодарите релизера, оцените раздачу и оставьте свои комментарий, если Вы скачали Девочка на велосипеде через торрент бесплатно! Внесите свою лепту в развитие PiratBit!
    Комментировать посты могут только пользователи прошедшие не сложную регистрацию
    Показать сообщения:    

    Девочка на велосипеде через торрент
    Скачать бесплатно Девочка на велосипеде
    Девочка на велосипеде скачать торрент
    Девочка на велосипеде смотреть онлайн
    Cкачать фильм Девочка на велосипеде бесплатно
    Девочка на велосипеде скачать торрент в хорошем качестве
    Девочка на велосипеде смотреть онлайн бесплатно в хорошем качестве


    Вы не можете начинать темы
    Вы не можете отвечать на сообщения
    Вы не можете редактировать свои сообщения
    Вы не можете удалять свои сообщения
    Вы не можете голосовать в опросах
    Вы не можете прикреплять файлы к сообщениям
    Вы можете скачивать файлы