Death Stranding+DLC+АВТОАКТИВАЦИЯ

iTunes

iTunes

iTunes

1

iTunes

iTunes

iTunes

iTunes

iTunes

30
pack

$ от Little Big

ВАЖНО

!!Акция!!

Alien_RageХит недели

RePack

Resident Evil 21

ИГРА 18+

pack

RePack

jed

!!Акция!!

Alien_Rage

RePack

fifa19

RePack

Assassins Creed: Odyssey

RePack

NEED FOR SPEED™ PAYBACK

4 сезон

9 сезон

Бесстыжие 9 сезон

Все сериалы

все сериалы на PB.wtf

RePack

FAR CRY 5
  

Мобильник / Cell (Тод «Кип» Уильямс) [2016, ужасы, фантастика, триллер, WEB-DL 1080p] Dub / iTunes pb.wtf

Мобильник через торрент pb.wtf

Раздают: 1 [ 0 KB/s ]
Размер: 3.37 GB | Добавлен: 3 года 11 мес. назад | Торрент скачан:945 раз
Скачать  

31-07-2016 09:13 Мобильник Скачать торрент  

Информация о фильме

Название: Мобильник

Оригинальное название: Cell

Год выхода: 2016

Выпущено: США / Benaroya Pictures, Cargo Entertainment, Genre Co., The

Продолжительность: 01:37:23

Перевод: Дублированный (iTunes)

Жанр: ужасы, фантастика, триллер

Режиссер: Тод «Кип» Уильямс

В ролях: Оуэн Тиг, Сэмюэл Л. Джексон, Джон Кьюсак, Изабель Фурман, Стейси Кич, Джошуа Микель, Ллойд Кауфман, Алекс тер Авест, Майкл Бисли, Гриффин Фриман

Описание: История художника Клайтона Ридделла, становящегося свидетелем разрушительного действия некоего опасного импульса, источающегося сотовыми телефонами (скорость его распространения невероятно высока) и превращающего попавших под его влияние людей в безумцев. В компании нескольких незараженных героев он отправляется на поиски своей супруги и сына, чтобы выяснить, удалось ли спастись его семье.



Файл

Качество: WEB-DL (1080p)

Видео: MPEG-4 AVC, 4477 Кбит/с, 1920x800, 24,000 кадра/сек

Аудио: Русский (AC3, 6 ch, 384 Кбит/с, 48,0 КГц)

Код:

Общее
Уникальный идентификатор                 : 229323638138079714337181720117599629182 (0xAC86204C52A9A3129D0F38BD75F56F7E)
Полное имя                               : E:\Mobila.2O16.D.WEBDL.1080p.mkv
Формат                                   : Matroska
Версия формата                           : Version 4 / Version 2
Размер файла                             : 3,37 Гбайт
Продолжительность                        : 1 ч. 37 м.
Общий поток                              : 4960 Кбит/сек
Дата кодирования                         : UTC 2016-07-31 04:02:06
Программа кодирования                    : mkvmerge v6.8.0 ('Theme for Great Cities') 64bit built on Mar  2 2014 21:34:26
Библиотека кодирования                   : libebml v1.3.0 + libmatroska v1.4.1

Видео
Идентификатор                            : 1
Формат                                   : AVC
Формат/Информация                        : Advanced Video Codec
Профиль формата                          : High@L4
Параметр CABAC формата                   : Да
Параметр ReFrames формата                : 5 кадров
Идентификатор кодека                     : V_MPEG4/ISO/AVC
Продолжительность                        : 1 ч. 37 м.
Битрейт                                  : 4477 Кбит/сек
Ширина                                   : 1920 пикселей
Высота                                   : 800 пикселей
Соотношение сторон                       : 2,40:1
Режим частоты кадров                     : Постоянный
Частота кадров                           : 24,000 кадра/сек
Цветовое пространство                    : YUV
Субдискретизация насыщенности            : 4:2:0
Битовая глубина                          : 8 бит
Тип развёртки                            : Прогрессивная
Бит/(Пиксели*Кадры)                      : 0.121
Размер потока                            : 3,05 Гбайт (90%)
Язык                                     : English
Default                                  : Да
Forced                                   : Нет
Цветовой диапазон                        : Limited
Основные цвета                           : BT.709
Характеристики трансфера                 : BT.709
Коэффициенты матрицы                     : BT.709

Аудио
Идентификатор                            : 2
Формат                                   : AC-3
Формат/Информация                        : Audio Coding 3
Расширение режима                        : CM (complete main)
Параметр Endianness формата              : Big
Идентификатор кодека                     : A_AC3
Продолжительность                        : 1 ч. 37 м.
Вид битрейта                             : Постоянный
Битрейт                                  : 384 Кбит/сек
Каналы                                   : 6 каналов
Расположение каналов                     : Front: L C R, Side: L R, LFE
Частота                                  : 48,0 КГц
Частота кадров                           : 31,250 кадров/сек (1536 spf)
Метод сжатия                             : С потерями
Размер потока                            : 268 Мбайт (8%)
Язык                                     : Russian
Default                                  : Да
Forced                                   : Нет

Меню
00:00:00.000                             : en:Глава 1
00:06:07.958                             : en:Глава 2
00:11:44.416                             : en:Глава 3
00:17:38.582                             : en:Глава 4
00:23:28.623                             : en:Глава 5
00:28:58.164                             : en:Глава 6
00:34:58.205                             : en:Глава 7
00:40:45.288                             : en:Глава 8
00:47:36.871                             : en:Глава 9
00:53:48.954                             : en:Глава 10
01:00:27.162                             : en:Глава 11
01:06:02.662                             : en:Глава 12
01:12:14.078                             : en:Глава 13
01:19:20.036                             : en:Глава 14
01:25:14.702                             : en:Глава 15
01:30:51.202                             : en:Глава 16

pb.wtf



Скачать Мобильник через торрент http://i79.fastpic.ru/big/2016/0611/58/262a475a9cd808ab999ba6f77bedb358.jpg Скачать фильм Мобильник через торрент бесплантно в хорошем качестве Описание: История художника Клайтона Ридделла, становящегося свидетелем разрушительного действия некоего опасного импульса, источающегося ... 9.3 10 27
Info! Золотая раздача, скачанное не засчитывается.
Торрент: Зарегистрирован [2016-07-31 09:13] · скачан: 945 раз
Статус: √ проверено
Размер: 3.37 GB
Как cкачать? Как скачать Мобильник через торрент | qTorrent

28-11-2019 20:33  

Отключить всю рекламу на сайте

31-07-2016 09:41 Мобильник Скачать торрент  

Ого оперативноpb.wtf



31-07-2016 12:32 Мобильник Скачать торрент  

спасибо за фильм)pb.wtf



31-07-2016 19:42 Мобильник Скачать торрент  

Спасибо! Заценимpb.wtf



31-07-2016 20:04 Мобильник Скачать торрент  

полная фигня,за релиз спасибоpb.wtf



03-08-2016 19:06 Мобильник Скачать торрент  

Выпущено: США / Benaroya Pictures, Cargo Entertainment, Genre Co., The

если б нормальная конторка снимала, могло и получше получиться.

больше всего бесил оператор с дрожащими руками (в боевиках даже так камерой не трясут) и диалоги, которые кажется и не адаптированы были, как и сценарий походу

P.S. "от режиссёра паранормальное явление 2" вот и оператор от туда же походу))pb.wtf



06-08-2016 18:14 Мобильник Скачать торрент  

вау, крутой фильм! рекомендую!pb.wtf



    Дорогой пользователь! Огромная просьба, поблагодарите релизера, оцените раздачу и оставьте свои комментарий, если Вы скачали Мобильник через торрент бесплатно! Внесите свою лепту в развитие PiratBit!
    Комментировать посты могут только пользователи прошедшие не сложную регистрацию
    Показать сообщения:    

    Мобильник через торрент
    Скачать бесплатно Мобильник
    Мобильник скачать торрент
    Мобильник смотреть онлайн
    Cкачать фильм Мобильник бесплатно
    Мобильник скачать торрент в хорошем качестве
    Мобильник смотреть онлайн бесплатно в хорошем качестве


    Вы не можете начинать темы
    Вы не можете отвечать на сообщения
    Вы не можете редактировать свои сообщения
    Вы не можете удалять свои сообщения
    Вы не можете голосовать в опросах
    Вы не можете прикреплять файлы к сообщениям
    Вы можете скачивать файлы