2 сезон

iTunes

MVO

1

2 сезон

iTunes

iTunes

1 сезон

RePack

30

Ultimate

ВАЖНО

ИГРА 18+

pack

RePack

MK11
pack

Легкие деньги

RePack

jed

RePack

fifa19

RePack

RDR2

RePack

NEED FOR SPEED™ PAYBACK

4 сезон

9 сезон

Бесстыжие 9 сезон

Все сериалы

все сериалы на PB.wtf

RePack

FAR CRY 5

Anonymous, добрый вечер, мы не успеваем собрать деньги на оплату серверов за декабрь и январь, помогите нам пожалуйста в это трудное время. В качестве благодарности мы отключим Вам всю рекламу на сайте (укажите свой ник в строку Ваше имя)!

×
  
Magnet ссылка

В воздухе / Aloft [2014, Драма, HDRip] MVO [Line] pb.wtf

В воздухе через торрент pb.wtf

Размер: 1.46 GB | Добавлен: 4 года 5 мес. назад | Торрент скачан:39 раз
Скачать  

01-08-2016 12:16 В воздухе Скачать торрент  

В воздухе / Aloft

Страна: Испания Канада Франция

Производство: Arcadia Motion Pictures, Buffalo Gal Pictures, Manitoba Films AIE, Noodles Production

Год выпуска: 2014

Жанр: драма

Продолжительность: 01:36:41

Режиссер: Клаудия Льоса

Автор сценария: Клаудия Льоса

В ролях: Дженнифер Коннелли, Киллиан Мёрфи, Мелани Лоран, Уна Чаплин, Иэн Трейси, Питер МакРобби, Зен МакГрат, Уильям Шимелл

Описание: Иван — маленький мальчик, его мама, Нана, работает на ферме. Она заботится о нем и о его младшем брате Галли, чье психическое состояние ухудшается из-за изнурительной болезни. Однажды к ним приезжает целитель, благодаря которому Нана обнаруживает свои собственные целительные силы…



Перевод: Профессиональный (многоголосый, закадровый) | чистый звук

Субтитры: нет
Качество: HDRip

Формат: АVI

Видео кодек: XviD

Аудио кодек: АС3

Видео: 720x304 (2.35:1), 24.000 fps, XviD build 65 ~1958 kbps avg, 0.373 bit/pixel

Аудио: 48.0 kHz, AC3 Dolby Digital, 2/0 (L,R) ch, ~192 kbps

Бюджет: $8 000 000

Дата премьеры (мир): 12 февраля 2014

General

Format : AVI

Format/Info : Audio Video Interleave

File size : 1.46 GiB

Duration : 1h 36mn

Overall bit rate : 2 160 Kbps

Writing application : VirtualDubMod 1.5.10.3 | (build 2550/release)

Writing library : VirtualDubMod build 2550/release

Video

ID : 0

Format : MPEG-4 Visual

Format profile : Advanced Simple@L5

Format settings, BVOP : 1

Format settings, QPel : No

Format settings, GMC : No warppoints

Format settings, Matrix : Custom

Codec ID : XVID

Codec ID/Hint : XviD

Duration : 1h 36mn

Bit rate : 1 958 Kbps

Width : 720 pixels

Height : 304 pixels

Display aspect ratio : 2.35:1

Frame rate : 24.000 fps

Color space : YUV

Chroma subsampling : 4:2:0

Bit depth : 8 bits

Scan type : Progressive

Compression mode : Lossy

Bits/(Pixel*Frame) : 0.373

Stream size : 1.32 GiB (91%)

Writing library : XviD 65

Audio

ID : 1

Format : AC-3

Format/Info : Audio Coding 3

Mode extension : CM (complete main)

Format settings, Endianness : Big

Codec ID : 2000

Duration : 1h 36mn

Bit rate mode : Constant

Bit rate : 192 Kbps

Channel(s) : 2 channels

Channel positions : Front: L R

Sampling rate : 48.0 KHz

Frame rate : 31.250 fps (1536 spf)

Compression mode : Lossy

Stream size : 133 MiB (9%)

Alignment : Split accross interleaves

Interleave, duration : 42 ms (1.00 video frame)

Interleave, preload duratio : 500 ms
pb.wtf



Скачать В воздухе через торрент http://img10.lostpic.net/2016/08/01/9a670c5c563ee4faac5cae7b0344aefe.png Скачать фильм В воздухе через торрент бесплантно в хорошем качестве Описание: Иван — маленький мальчик, его мама, Нана, работает на ферме. Она заботится о нем и о его младшем брате Галли, чье психическое ... 10 10 3
Торрент: Зарегистрирован [2016-08-01 12:16] · скачан: 39 раз
Статус: T временная
Размер: 1.46 GB
Как cкачать? Как скачать В воздухе через торрент | UTorrent

% Раздел Тема Автор DL S | L
Фильмы (Blu-ray, BD-Remux, HDDVD) [ 21.94 GB ] В воздухе / Aloft [2014 BDRemux 1080p от NovaLan] VO Ворон Скачать
1 | 0

28-11-2019 20:33  

Отключить всю рекламу на сайте

    Дорогой пользователь! Огромная просьба, поблагодарите релизера, оцените раздачу и оставьте свои комментарий, если Вы скачали В воздухе через торрент бесплатно! Внесите свою лепту в развитие PiratBit!
    Комментировать посты могут только пользователи прошедшие не сложную регистрацию
    Показать сообщения:    

    В воздухе через торрент
    Скачать бесплатно В воздухе
    В воздухе скачать торрент
    В воздухе смотреть онлайн
    Cкачать фильм В воздухе бесплатно
    В воздухе скачать торрент в хорошем качестве
    В воздухе смотреть онлайн бесплатно в хорошем качестве


    Вы не можете начинать темы
    Вы не можете отвечать на сообщения
    Вы не можете редактировать свои сообщения
    Вы не можете удалять свои сообщения
    Вы не можете голосовать в опросах
    Вы не можете прикреплять файлы к сообщениям
    Вы можете скачивать файлы