Доктор Стрэндж

Лицензия

Добыча

MVO

Дом дракона

1 сезон

Тор

Лицензия

Мэверик

Лицензия

Там, где раки поют

MVO

Властелин колец

1 сезон

Ultimate

pack

Рекомендуем

30

Repack

ВАЖНО

ВАЖНО

Ghostwire

RePack

jed

RePack

nioh2

RePack

RDR2

RePack

NEED FOR SPEED™ PAYBACK

RePack

скачать торрент

Кинопоиск HD

Острые козырьки 6 сезон

6 сезон

FAR CRY 6

RePack

скачать торрент

Лицензия

скачать торрент

MVO

1

1 сезон

скачать торрент

1 сезон

скачать торрент

Лицензия

  

«V» значит Вендетта / V for Vendetta (Джеймс МакТиг) [2005 г., фантастика, боевик, триллер, антиутопия, BDRip 720p от _denis_100 / NNNB] DUB + DVO + 2xAVO

«V» значит Вендетта через торрент pb.wtf

Раздают: 1 [ 0 KB/s ]
Размер: 7.75 GB | Добавлен: 6 лет 2 мес. назад | Торрент скачан:373 раза
Смотреть онлайн «V» значит Вендетта | Скачать   

02-08-2016 10:15 «V» значит Вендетта Скачать торрент  

«V» значит Вендетта / V for Vendetta
«Свобода навсегда!»



Название: «V» значит Вендетта
Оригинальное название: V for Vendetta
Год выпуска: 2005
Жанр: Фантастика, боевик, триллер, антиутопия
Выпущено: Германия, США, Великобритания, Anarchos Productions Inc., DC Comics, Fuenfte Babelsberg Film, Medienboard Berlin-Brandenburg, Silver Pictures
Длительность: 02:12:33
Перевод: Дублированный, Профессиональный двухголосый, Авторский одноголосый
Субтитры: русские , английские
Режиссер: Джеймс МакТиг
В ролях: Натали Портман, Хьюго Уивинг, Стивен Ри, Стивен Фрай, Джон Хёрт, Тим Пиготт-Смит, Руперт Грейвз, Роджер Аллам, Бен Майлз, Шинейд Кьюсак, Наташа Уайтман, Джон Стэндинг, Эдди Марсан, Клайв Эшборн, Эмма Филд-Рэйнер, Иэн Барфилд, Марк Феникс, Алистер Мадзотти, Билли Кук, Гай Генри, Косима Шоу, Меган Гэй, Родрик Калвер, Тара Хэкинг, Энди Рашлай, Чад Стахелски, Антье Рау, Амельда Браун, Ричард Кэмпбелл, Патриция Гэннон, Марк Лонгхерст
Описание:
Альтернативное будущее. В Англии, после страшной эпидемии неизвестного вируса, повергшей страну в хаос, устанавливается жестокая диктатура властного канцлера со всеми сопутствующими прелестями: комендантский час, всевластие членов партии над простыми людьми и, конечно, сотни тайных стукачей-осведомителей. Однажды ночью в Лондоне появляется борец за свободу, известный как V, который начинает партизанскую войну с режимом в попытке вернуть народу отнятую у него свободу. В этой войне он привлекает на свою сторону молодую женщину, которую он вырвал из лап тайной полиции.


Качество: BDRip 720p
Контейнер (Расширение): MKV
Видео :1280x534, 5175 Кбитсек, 23,976 кадрсек, 0,316 Бит[ПикселиКадры]
Аудио №1: русский AC3 5.1 48 kHz 640 kbps 16 bit - Дублированный
Аудио №2: русский AC3 5.1 48 kHz 640 kbps 16 bit - Профессиональный двухголосый, Tycoon
Аудио №3: русский AC3 5.1 48 kHz 640 kbps 16 bit - Авторский одноголосый, Немахов
Аудио №4: русский AC3 5.1 48 kHz 640 kbps 16 bit - Авторский одноголосый, Гаврилов
Аудио №5: английский AC3 5.1 48 kHz 640 kbps 16 bit
Навигация по главам(Чаптеры): естьАвтор рипа: Сообщество: Звуковые дорожки и субтитры отдельно:

Код:

Format                      : Matroska
Format version              : Version 2
File size                   : 7.75 GiB
Duration                    : 2h 12mn
Overall bit rate            : 8 376 Kbps
Movie name                  : V for Vendetta.(2005).BDRip.720p.[denis100]
Encoded date                : UTC 2016-08-02 09:04:27
Writing application         : mkvmerge v5.8.0 ('No Sleep / Pillow') built on Sep  2 2012 15:37:04
Writing library             : libebml v1.2.3 + libmatroska v1.3.0

Video
ID                          : 1
Format                      : AVC
Format/Info                 : Advanced Video Codec
Format profile              : [email protected]
Format settings, CABAC      : Yes
Format settings, ReFrames   : 11 frames
Codec ID                    : V_MPEG4/ISO/AVC
Duration                    : 2h 12mn
Bit rate                    : 5 175 Kbps
Width                       : 1 280 pixels
Height                      : 534 pixels
Display aspect ratio        : 2.40:1
Frame rate mode             : Constant
Frame rate                  : 23.976 fps
Color space                 : YUV
Chroma subsampling          : 4:2:0
Bit depth                   : 8 bits
Scan type                   : Progressive
Bits/(Pixel*Frame)          : 0.316
Stream size                 : 4.64 GiB (60%)
Title                       : V for Vendetta.(2005).BDRip.720p.[denis100]
Writing library             : x264 core 148 r2705 3f5ed56
Encoding settings           : cabac=1 / ref=11 / deblock=1:-3:-3 / analyse=0x3:0x133 / me=umh / subme=11 / psy=1 / psy_rd=1.00:0.15 / mixed_ref=1 / me_range=32 / chroma_me=1 / trellis=2 / 8x8dct=1 / cqm=0 / deadzone=21,11 / fast_pskip=0 / chroma_qp_offset=-3 / threads=6 / lookahead_threads=1 / sliced_threads=0 / nr=0 / decimate=1 / interlaced=0 / bluray_compat=0 / constrained_intra=0 / bframes=11 / b_pyramid=2 / b_adapt=2 / b_bias=0 / direct=3 / weightb=1 / open_gop=0 / weightp=2 / keyint=240 / keyint_min=23 / scenecut=40 / intra_refresh=0 / rc=2pass / mbtree=0 / bitrate=5175 / ratetol=1.0 / qcomp=0.60 / qpmin=0 / qpmax=69 / qpstep=4 / cplxblur=20.0 / qblur=0.5 / ip_ratio=1.40 / pb_ratio=1.30 / aq=1:0.80
Language                    : English
Default                     : Yes
Forced                      : No

Audio #1
ID                          : 2
Format                      : AC-3
Format/Info                 : Audio Coding 3
Mode extension              : CM (complete main)
Format settings, Endianness : Big
Codec ID                    : A_AC3
Duration                    : 2h 12mn
Bit rate mode               : Constant
Bit rate                    : 640 Kbps
Channel(s)                  : 6 channels
Channel positions           : Front: L C R, Side: L R, LFE
Sampling rate               : 48.0 KHz
Compression mode            : Lossy
Stream size                 : 607 MiB (8%)
Title                       : Дублированный
Language                    : Russian
Default                     : Yes
Forced                      : No

Audio #2
ID                          : 3
Format                      : AC-3
Format/Info                 : Audio Coding 3
Mode extension              : CM (complete main)
Format settings, Endianness : Big
Codec ID                    : A_AC3
Duration                    : 2h 12mn
Bit rate mode               : Constant
Bit rate                    : 640 Kbps
Channel(s)                  : 6 channels
Channel positions           : Front: L C R, Side: L R, LFE
Sampling rate               : 48.0 KHz
Compression mode            : Lossy
Stream size                 : 607 MiB (8%)
Title                       : DVO, Tycoon
Language                    : Russian
Default                     : No
Forced                      : No

Audio #3
ID                          : 4
Format                      : AC-3
Format/Info                 : Audio Coding 3
Mode extension              : CM (complete main)
Format settings, Endianness : Big
Codec ID                    : A_AC3
Duration                    : 2h 12mn
Bit rate mode               : Constant
Bit rate                    : 640 Kbps
Channel(s)                  : 6 channels
Channel positions           : Front: L C R, Side: L R, LFE
Sampling rate               : 48.0 KHz
Compression mode            : Lossy
Stream size                 : 607 MiB (8%)
Title                       : AVO, Немахов
Language                    : Russian
Default                     : No
Forced                      : No

Audio #4
ID                          : 5
Format                      : AC-3
Format/Info                 : Audio Coding 3
Mode extension              : CM (complete main)
Format settings, Endianness : Big
Codec ID                    : A_AC3
Duration                    : 2h 12mn
Bit rate mode               : Constant
Bit rate                    : 640 Kbps
Channel(s)                  : 6 channels
Channel positions           : Front: L C R, Side: L R, LFE
Sampling rate               : 48.0 KHz
Compression mode            : Lossy
Stream size                 : 607 MiB (8%)
Title                       : AVO, Гаврилов
Language                    : Russian
Default                     : No
Forced                      : No

Audio #5
ID                          : 6
Format                      : AC-3
Format/Info                 : Audio Coding 3
Mode extension              : CM (complete main)
Format settings, Endianness : Big
Codec ID                    : A_AC3
Duration                    : 2h 12mn
Bit rate mode               : Constant
Bit rate                    : 640 Kbps
Channel(s)                  : 6 channels
Channel positions           : Front: L C R, Side: L R, LFE
Sampling rate               : 48.0 KHz
Compression mode            : Lossy
Stream size                 : 607 MiB (8%)
Language                    : English
Default                     : No
Forced                      : No

Text #1
ID                          : 7
Format                      : UTF-8
Codec ID                    : S_TEXT/UTF8
Codec ID/Info               : UTF-8 Plain Text
Language                    : Russian
Default                     : No
Forced                      : No

Text #2
ID                          : 8
Format                      : UTF-8
Codec ID                    : S_TEXT/UTF8
Codec ID/Info               : UTF-8 Plain Text
Language                    : English
Default                     : No
Forced                      : No

Menu
00:00:00.000                : en:00:00:00.000
00:02:24.310                : en:00:02:24.310
00:09:07.880                : en:00:09:07.880
00:11:00.409                : en:00:11:00.409
00:16:26.985                : en:00:16:26.985
00:21:56.648                : en:00:21:56.648
00:25:01.500                : en:00:25:01.500
00:30:09.807                : en:00:30:09.807
00:35:37.468                : en:00:35:37.468
00:40:37.434                : en:00:40:37.434
00:43:14.258                : en:00:43:14.258
00:48:02.713                : en:00:48:02.713
00:49:40.978                : en:00:49:40.978
00:54:11.081                : en:00:54:11.081
00:56:39.562                : en:00:56:39.562
01:00:31.294                : en:01:00:31.294
01:04:47.049                : en:01:04:47.049
01:09:41.176                : en:01:09:41.176
01:12:07.489                : en:01:12:07.489
01:18:49.725                : en:01:18:49.725
01:21:13.034                : en:01:21:13.034
01:26:01.656                : en:01:26:01.656
01:29:20.688                : en:01:29:20.688
01:32:08.356                : en:01:32:08.356
01:36:21.275                : en:01:36:21.275
01:39:28.462                : en:01:39:28.462
01:44:17.584                : en:01:44:17.584
01:48:50.357                : en:01:48:50.357
01:52:03.716                : en:01:52:03.716
01:53:57.664                : en:01:53:57.664
01:57:51.564                : en:01:57:51.564
01:59:35.334                : en:01:59:35.334
02:04:38.470                : en:02:04:38.470

x264 [info]: frame I:1714 Avg QP:12.72 size:117776
x264 [info]: frame P:40389 Avg QP:14.94 size: 45124
x264 [info]: frame B:148574 Avg QP:16.69 size: 20983



Скачать «V» значит Вендетта через торрент http://i4-imageban-ru.translate.goog/out/2016/08/02/bf944105b3966167695d15a17642c3cc.png Скачать, смотреть онлайн «V» значит Вендетта бесплантно в хорошем качестве Описание:Альтернативное будущее. В Англии, после страшной эпидемии неизвестного вируса, повергшей страну в хаос, устанавливается жестокая ... 9.8 10 13
Info! Золотая раздача, скачанное не засчитывается.
Торрент: Зарегистрирован [2016-08-02 10:15] · скачан: 373 раз
Статус: √ проверено
Размер: 7.75 GB
Как cкачать? Как скачать «V» значит Вендетта через торрент | UTorrent

% Раздел Тема Автор DL S | L
Ultra HD (UHD: 2K, 4K, 8K) [ 68.82 GB ] «V» значит Вендетта / V for Vendetta | Лицензия | 2160p bober100 Скачать
1 | 0

28-11-2019 20:33  

Отключить вcю реклaмy на сайте

    Дорогой пользователь! Огромная просьба, поблагодарите релизера, оцените раздачу и оставьте свои комментарий, если Вы скачали «V» значит Вендетта через торрент бесплатно!!
    Комментировать посты могут только пользователи прошедшие не сложную регистрацию
    Показать сообщения:    


    «V» значит Вендетта через торрент
    Скачать бесплатно «V» значит Вендетта
    «V» значит Вендетта скачать торрент
    «V» значит Вендетта смотреть онлайн
    Cкачать фильм «V» значит Вендетта бесплатно
    «V» значит Вендетта скачать торрент в хорошем качестве
    «V» значит Вендетта смотреть онлайн бесплатно в хорошем качестве
    Вы не можете начинать темы
    Вы не можете отвечать на сообщения
    Вы не можете редактировать свои сообщения
    Вы не можете удалять свои сообщения
    Вы не можете голосовать в опросах
    Вы не можете прикреплять файлы к сообщениям
    Вы можете скачивать файлы