Ссылка на приватное зеркало нашего сайта всего за 1$. Внимание количество ограничено!!!

2 сезон

iTunes

1 сезон

1

iTunes

iTunes

iTunes

1 сезон

RePack

30

ИГРА 18+

pack

ВАЖНО

!!Акция!!

Alien_RageХит недели

RePack

MK11
pack

Забери бонус

RePack

jed

!!Акция!!

Alien_Rage

RePack

fifa19

RePack

Assassins Creed: Odyssey

RePack

NEED FOR SPEED™ PAYBACK

4 сезон

9 сезон

Бесстыжие 9 сезон

Все сериалы

все сериалы на PB.wtf

RePack

FAR CRY 5
  

Пеле: Рождение легенды / Pelé: Birth of a Legend (Джефф Цимбалист, Майкл Цимбалист) [2016, драма, биография, спорт, Blu-Ray Remux 1080p] [DUB] [Лицензия / iTunes] pb.wtf

Пеле: Рождение легенды через торрент pb.wtf

Размер: 27.89 GB | Добавлен: 4 года 2 мес. назад | Торрент скачан:163 раза
Скачать  

04-08-2016 12:41 Пеле: Рождение легенды Скачать торрент  

Пеле: Рождение легенды / Pelé: Birth of a Legend
Год выпуска: 2016
Страна: США
Жанр: драма, биография, спорт
Продолжительность: 01:46:55
Перевод: Дублированный [Лицензия / iTunes]
Субтитры: английские

Режиссеры: Джефф Цимбалист, Майкл Цимбалист

В ролях: Винсент Д’Онофрио, Родриго Санторо, Диего Бонета, Колм Мини, Kevin de Paula, Сеу Жоржи, Тоня Корнелисс, Мариана Балса, Андре Маттос, Leonardo Lima Carvalho Биографическая драма расскажет о закулисье спорта, в частности о жизни величайшего игрока в истории футбола — Пеле. Зрители станут свидетелями непростой жизни бразильской легенды спорта. Сколько преград тому удалось преодолеть на своем пути, чтобы добиться мировой популярности? Это сейчас он демонстрирует невероятные профессиональные достижения и вдобавок ко всему не забывает о благородных делах, но раньше все было по-другому.



Качество видео: Blu-Ray Remux 1080p
Формат видео: MKV
Видео: MPEG-4 AVC, 33.0 Mbps, 1920x1080, 23.976 fps
Аудио: AC3, 384 Kbps, 48.0 KHz, 6 ch [Лицензия / iTunes]
Аудио: DTS-HD MA, 4018 Kbps, 48.0 KHz, 6 ch [ENG]
General
Unique ID : 242983249384567954626680841662276967857 (0xB6CCDF2102440168ADF7C39B3E161DB1)
Complete name : G:\Video\Pele.Birth.Of.A.Legend.2016.D.BDREMUX.1080p.selezen.mkv
Format : Matroska
Format version : Version 4 / Version 2
File size : 27.9 GiB
Duration : 1h 47mn
Overall bit rate mode : Variable
Overall bit rate : 37.3 Mbps
Movie name : Pele.Birth.Of.A.Legend.2016.D.BDREMUX.1080p.selezen
Encoded date : UTC 2016-08-04 01:56:38
Writing application : mkvmerge v8.3.0 ('Over the Horizon') 64bit
Writing library : libebml v1.3.1 + libmatroska v1.4.2

Video
ID : 1
Format : AVC
Format/Info : Advanced Video Codec
Format profile : High@L4.1
Format settings, CABAC : Yes
Format settings, ReFrames : 3 frames
Codec ID : V_MPEG4/ISO/AVC
Duration : 1h 47mn
Bit rate mode : Variable
Bit rate : 33.0 Mbps
Maximum bit rate : 36.0 Mbps
Width : 1 920 pixels
Height : 1 080 pixels
Display aspect ratio : 16:9
Frame rate mode : Constant
Frame rate : 23.976 (24000/1001) fps
Color space : YUV
Chroma subsampling : 4:2:0
Bit depth : 8 bits
Scan type : Progressive
Bits/(Pixel*Frame) : 0.664
Stream size : 24.6 GiB (88%)
Writing library : x264 core 146 r2538 121396c
Encoding settings : cabac=1 / ref=4 / deblock=1:-1:-1 / analyse=0x3:0x133 / me=umh / subme=10 / psy=1 / psy_rd=1.00:0.15 / mixed_ref=1 / me_range=24 / chroma_me=1 / trellis=2 / 8x8dct=1 / cqm=0 / deadzone=21,11 / fast_pskip=1 / chroma_qp_offset=-3 / threads=24 / lookahead_threads=2 / sliced_threads=0 / slices=4 / nr=0 / decimate=1 / interlaced=0 / bluray_compat=1 / constrained_intra=0 / bframes=3 / b_pyramid=1 / b_adapt=2 / b_bias=0 / direct=3 / weightb=1 / open_gop=1 / weightp=1 / keyint=24 / keyint_min=1 / scenecut=40 / intra_refresh=0 / rc_lookahead=24 / rc=2pass / mbtree=1 / bitrate=33000 / ratetol=1.0 / qcomp=0.60 / qpmin=0 / qpmax=69 / qpstep=4 / cplxblur=20.0 / qblur=0.5 / vbv_maxrate=36000 / vbv_bufsize=30000 / nal_hrd=vbr / filler=0 / ip_ratio=1.40 / aq=1:1.00
Language : English
Default : Yes
Forced : No
Color range : Limited
Color primaries : BT.709
Transfer characteristics : BT.709
Matrix coefficients : BT.709

Audio #1
ID : 2
Format : AC-3
Format/Info : Audio Coding 3
Mode extension : CM (complete main)
Format settings, Endianness : Big
Codec ID : A_AC3
Duration : 1h 47mn
Bit rate mode : Constant
Bit rate : 384 Kbps
Channel(s) : 6 channels
Channel positions : Front: L C R, Side: L R, LFE
Sampling rate : 48.0 KHz
Frame rate : 31.250 fps (1536 spf)
Compression mode : Lossy
Stream size : 294 MiB (1%)
Title : DUB [iTunes]
Language : Russian
Default : Yes
Forced : No

Audio #2
ID : 3
Format : DTS
Format/Info : Digital Theater Systems
Format profile : MA / Core
Mode : 16
Format settings, Endianness : Big
Codec ID : A_DTS
Duration : 1h 47mn
Bit rate mode : Variable / Constant
Bit rate : 4 018 Kbps / 1 509 Kbps
Channel(s) : 6 channels
Channel positions : Front: L C R, Side: L R, LFE
Sampling rate : 48.0 KHz
Frame rate : 93.750 fps (512 spf)
Bit depth : 24 bits
Compression mode : Lossless / Lossy
Stream size : 3.01 GiB (11%)
Title : Original
Language : English
Default : No
Forced : No

Text
ID : 4
Format : UTF-8
Codec ID : S_TEXT/UTF8
Codec ID/Info : UTF-8 Plain Text
Duration : 1h 40mn
Bit rate : 65 bps
Count of elements : 1361
Stream size : 48.2 KiB (0%)
Title : Full
Language : English
Default : No
Forced : No

Menu
00:00:00.000 : en:00:00:00.000
00:08:37.809 : en:00:08:37.809
00:15:48.156 : en:00:15:48.156
00:27:30.983 : en:00:27:30.983
00:34:55.093 : en:00:34:55.093
00:43:33.569 : en:00:43:33.569
00:53:53.772 : en:00:53:53.772
01:04:19.731 : en:01:04:19.731
01:14:40.309 : en:01:14:40.309
01:21:35.057 : en:01:21:35.057
01:29:41.001 : en:01:29:41.001
01:42:00.072 : en:01:42:00.072

[/code]
pb.wtf



Скачать Пеле: Рождение легенды через торрент http://i80.fastpic.ru/big/2016/0518/03/bdb02e814654cb51ba2669a0bb5dff03.jpg Скачать фильм Пеле: Рождение легенды через торрент бесплантно в хорошем качестве В ролях: Винсент Д’Онофрио, Родриго Санторо, Диего Бонета, Колм Мини, Kevin de Paula, Сеу Жоржи, Тоня Корнелисс, Мариана Балса, Андре ... 9 10 3
Info! Золотая раздача, скачанное не засчитывается.
Торрент: Зарегистрирован [2016-08-04 12:41] · скачан: 163 раз
Статус: √ проверено
Размер: 27.89 GB
Как cкачать? Как скачать Пеле: Рождение легенды через торрент | qTorrent

% Раздел Тема Автор DL S | L
Фильмы 2016 [DVDrip, WEB-DLRip, HDrip] (DUB, MVO) [ 2 GB ] Пеле: Рождение легенды / Pelé: Birth of a Legend [2016 биография HDRip-AVC] [] от MediaBit Lithuania Скачать
5 | 0
Фильмы 2016 [DVDrip, WEB-DLRip, HDrip] (DUB, MVO) [ 1.46 GB ] Пеле: Рождение легенды / Pelé: Birth of a Legend [2016 биография BDRip] - [] Twi7ter Скачать
2 | 0
Фильмы 2016 [DVDrip, WEB-DLRip, HDrip] (DUB, MVO) [ 2.05 GB ] Пеле: Рождение легенды / Pelé: Birth of a Legend [2016 биография HDRip ""] coc900 Скачать
1 | 0
Фильмы без перевода [ 3.68 GB ] Пеле: Рождение легенды / Pelé: Birth of a Legend [2016 биография WEB-DL 1080p] [ENG] killermax2013 Скачать
1 | 0

28-11-2019 20:33  

Отключить всю рекламу на сайте

    Дорогой пользователь! Огромная просьба, поблагодарите релизера, оцените раздачу и оставьте свои комментарий, если Вы скачали Пеле: Рождение легенды через торрент бесплатно! Внесите свою лепту в развитие PiratBit!
    Комментировать посты могут только пользователи прошедшие не сложную регистрацию
    Показать сообщения:    

    Пеле: Рождение легенды через торрент
    Скачать бесплатно Пеле: Рождение легенды
    Пеле: Рождение легенды скачать торрент
    Пеле: Рождение легенды смотреть онлайн
    Cкачать фильм Пеле: Рождение легенды бесплатно
    Пеле: Рождение легенды скачать торрент в хорошем качестве
    Пеле: Рождение легенды смотреть онлайн бесплатно в хорошем качестве


    Вы не можете начинать темы
    Вы не можете отвечать на сообщения
    Вы не можете редактировать свои сообщения
    Вы не можете удалять свои сообщения
    Вы не можете голосовать в опросах
    Вы не можете прикреплять файлы к сообщениям
    Вы можете скачивать файлы