Ссылка на приватное зеркало нашего сайта всего за 1$. Внимание количество ограничено!!!

2 сезон

iTunes

1 сезон

1

iTunes

iTunes

iTunes

1 сезон

RePack

30

ИГРА 18+

pack

ВАЖНО

!!Акция!!

Alien_RageХит недели

RePack

MK11
pack

Забери бонус

RePack

jed

!!Акция!!

Alien_Rage

RePack

fifa19

RePack

Assassins Creed: Odyssey

RePack

NEED FOR SPEED™ PAYBACK

4 сезон

9 сезон

Бесстыжие 9 сезон

Все сериалы

все сериалы на PB.wtf

RePack

FAR CRY 5
  

Счастливый случай / It Could Happen to You / 1994 (Эндрю Бергман) [1994, драма, мелодрама, комедия, BDRip 1080p by msltel] 2 x MVO, AVO pb.wtf

Счастливый случай через торрент pb.wtf

Размер: 13.58 GB | Добавлен: 4 года 2 мес. назад | Торрент скачан:26 раз
Скачать  

04-08-2016 12:51 Счастливый случай Скачать торрент  

Название: Счастливый случай
Оригинальное название: It Could Happen to You
Год выпуска: 1994
Страна: США
Жанр: драма, мелодрама, комедия
Продолжительность: 01:41:31
Перевод: профессиональный многоголосый, авторский

Режиссёр: Эндрю Бергман

В ролях: Николас Кейдж, Бриджит Фонда, Рози Перес, Айзек Хейз, Уэнделл Пирс, Виктор Рохас, Сеймур Кэссел, Стэнли Туччи, Ред Баттонс, Дж. Э. Фримен, Ричард Дженкинс, Роберт Дорфман, Чарльз Буш, Беатрис Уинд, Джинни Янг, Рене Ривера, Энджел Дэвид, Анна Лобелл, Клаудия Шир, Мервин Голдсмит, Винсент Пасторе, Бэрри Скуитьери, Фил Стейн, Джером Тернер, Джордж Дж. Мэнос

Описание: Самая большая неудача в жизни полицейского Чарли Лэнга это его жена, которая с утра до вечера может говорить и думать только о деньгах. У него самого их не хватает даже на чаевые очаровательной официантке. В кармане только лотерейный билет, купленный по совету мудрой супруги. Не задумываясь, Чарли обещает девушке половину своего выигрыша. И вот четыре миллиона долларов сваливаются ему на голову. Первую половину суммы уже успешно тратит его жена, окончательно поглупевшая от такого счастья. Теперь Чарли богат, но он не забыл, что еще должен заплатить чаевые… в два миллиона долларов...



Качество: BDRip 1080p Сравнение с исходником
Формат: MKV
Видео: MPEG-4 AVC, 17.8 Mбит/с, 1920x1040, 23,976 кадра/с
Аудио 1: русский, AC3, 256 kbps, 2 ch, 48 kHz [профессиональный многоголосый]
Аудио 2: русский, AC3, 192 kbps, 2 ch, 48 kHz [профессиональный многоголосый, НТВ+]
Аудио 3: русский, AC3, 256 kbps, 2 ch, 48 kHz [авторский, Антон Пронин]
Аудио 4: английский, AC3, 640 kbps, 6 ch, 48 kHz [оригинал]
Субтитры: английские
Общее
Уникальный идентификатор : 182145460676156453523136396058578173704 (0x8907F08FDAB08277B5D4FC3FC2BCBF08)
Полное имя : D:\Video\Счастливый случай.1994.BDRip.1080p.mkv
Формат : Matroska
Версия формата : Version 4 / Version 2
Размер файла : 13,6 Гбайт
Продолжительность : 1 ч. 41 м.
Общий поток : 19,2 Мбит/сек
Дата кодирования : UTC 2016-08-03 13:21:34
Программа кодирования : mkvmerge v8.2.0 ('World of Adventure') 64bit
Библиотека кодирования : libebml v1.3.1 + libmatroska v1.4.2

Видео
Идентификатор : 1
Формат : AVC
Формат/Информация : Advanced Video Codec
Профиль формата : High@L4.1
Параметр CABAC формата : Да
Параметр ReFrames формата : 4 кадра
Идентификатор кодека : V_MPEG4/ISO/AVC
Продолжительность : 1 ч. 41 м.
Битрейт : 17,8 Мбит/сек
Ширина : 1920 пикселей
Высота : 1040 пикселей
Соотношение сторон : 1,85:1
Режим частоты кадров : Постоянный
Частота кадров : 23,976 (24000/1001) кадра/сек
Цветовое пространство : YUV
Субдискретизация насыщенности : 4:2:0
Битовая глубина : 8 бит
Тип развёртки : Прогрессивная
Бит/(Пиксели*Кадры) : 0.372
Размер потока : 12,6 Гбайт (93%)
Библиотека кодирования : x264 core 146 r2538 121396c
Настройки программы : cabac=1 / ref=4 / deblock=1:-3:-3 / analyse=0x3:0x113 / me=umh / subme=10 / psy=1 / psy_rd=1.00:0.15 / mixed_ref=1 / me_range=32 / chroma_me=1 / trellis=2 / 8x8dct=1 / cqm=0 / deadzone=21,11 / fast_pskip=1 / chroma_qp_offset=-3 / threads=6 / lookahead_threads=1 / sliced_threads=0 / nr=0 / decimate=1 / interlaced=0 / bluray_compat=0 / constrained_intra=0 / bframes=9 / b_pyramid=2 / b_adapt=2 / b_bias=0 / direct=1 / weightb=1 / open_gop=0 / weightp=2 / keyint=230 / keyint_min=23 / scenecut=40 / intra_refresh=0 / rc_lookahead=40 / rc=crf / mbtree=0 / crf=18.1 / qcomp=0.60 / qpmin=0 / qpmax=69 / qpstep=4 / vbv_maxrate=40000 / vbv_bufsize=50000 / crf_max=0.0 / nal_hrd=none / filler=0 / ip_ratio=1.40 / pb_ratio=1.30 / aq=1:1.00
Язык : English
Default : Да
Forced : Нет

Аудио #1
Идентификатор : 2
Формат : AC-3
Формат/Информация : Audio Coding 3
Расширение режима : CM (complete main)
Параметр Endianness формата : Big
Идентификатор кодека : A_AC3
Продолжительность : 1 ч. 41 м.
Вид битрейта : Постоянный
Битрейт : 256 Кбит/сек
Каналы : 2 канала
Расположение каналов : Front: L R
Частота : 48,0 КГц
Частота кадров : 31,250 кадров/сек (1536 spf)
Метод сжатия : С потерями
Размер потока : 186 Мбайт (1%)
Заголовок : MVO
Язык : Russian
Default : Да
Forced : Нет

Аудио #2
Идентификатор : 3
Формат : AC-3
Формат/Информация : Audio Coding 3
Расширение режима : CM (complete main)
Параметр Endianness формата : Big
Идентификатор кодека : A_AC3
Продолжительность : 1 ч. 41 м.
Вид битрейта : Постоянный
Битрейт : 192 Кбит/сек
Каналы : 2 канала
Расположение каналов : Front: L R
Частота : 48,0 КГц
Частота кадров : 31,250 кадров/сек (1536 spf)
Метод сжатия : С потерями
Размер потока : 139 Мбайт (1%)
Заголовок : MVO (HTB+)
Язык : Russian
Default : Нет
Forced : Нет

Аудио #3
Идентификатор : 4
Формат : AC-3
Формат/Информация : Audio Coding 3
Расширение режима : CM (complete main)
Параметр Endianness формата : Big
Идентификатор кодека : A_AC3
Продолжительность : 1 ч. 41 м.
Вид битрейта : Постоянный
Битрейт : 256 Кбит/сек
Каналы : 2 канала
Расположение каналов : Front: L R
Частота : 48,0 КГц
Частота кадров : 31,250 кадров/сек (1536 spf)
Метод сжатия : С потерями
Размер потока : 186 Мбайт (1%)
Заголовок : AVO (Антон Пронин)
Язык : Russian
Default : Нет
Forced : Нет

Аудио #4
Идентификатор : 5
Формат : AC-3
Формат/Информация : Audio Coding 3
Расширение режима : CM (complete main)
Параметр Endianness формата : Big
Идентификатор кодека : A_AC3
Продолжительность : 1 ч. 41 м.
Вид битрейта : Постоянный
Битрейт : 640 Кбит/сек
Каналы : 6 каналов
Расположение каналов : Front: L C R, Side: L R, LFE
Частота : 48,0 КГц
Частота кадров : 31,250 кадров/сек (1536 spf)
Метод сжатия : С потерями
Размер потока : 465 Мбайт (3%)
Заголовок : original
Язык : English
Default : Нет
Forced : Нет

Текст
Идентификатор : 6
Формат : UTF-8
Идентификатор кодека : S_TEXT/UTF8
Идентификатор кодека/Информация : UTF-8 Plain Text
Продолжительность : 1 ч. 36 м.
Битрейт : 50 бит/сек
Count of elements : 830
Размер потока : 35,9 Кбайт (0%)
Заголовок : английские
Язык : English
Default : Нет
Forced : Нет
pb.wtf



Скачать Счастливый случай через торрент http://s019.radikal.ru/i641/1608/f3/6b80ba5f17c7.jpg Скачать фильм Счастливый случай через торрент бесплантно в хорошем качестве Описание: Самая большая неудача в жизни полицейского Чарли Лэнга это его жена, которая с утра до вечера может говорить и думать только о ... 10 10 4
Info! Золотая раздача, скачанное не засчитывается.
Торрент: Зарегистрирован [2016-08-04 12:51] · скачан: 26 раз
Статус: √ проверено
Размер: 13.58 GB
Как cкачать? Как скачать Счастливый случай через торрент | qTorrent

% Раздел Тема Автор DL S | L
Фильмы [HD 720p, 1080p] (Хороший звук DUB, MVO) [ 5.36 GB ] Счастливый случай / It Could Happen to You / 1994 [1994 BDRip 720p by msltel] 2 x MVO AVO msltel Скачать
1 | 0

28-11-2019 20:33  

Отключить всю рекламу на сайте

    Дорогой пользователь! Огромная просьба, поблагодарите релизера, оцените раздачу и оставьте свои комментарий, если Вы скачали Счастливый случай через торрент бесплатно! Внесите свою лепту в развитие PiratBit!
    Комментировать посты могут только пользователи прошедшие не сложную регистрацию
    Показать сообщения:    

    Счастливый случай через торрент
    Скачать бесплатно Счастливый случай
    Счастливый случай скачать торрент
    Счастливый случай смотреть онлайн
    Cкачать фильм Счастливый случай бесплатно
    Счастливый случай скачать торрент в хорошем качестве
    Счастливый случай смотреть онлайн бесплатно в хорошем качестве


    Вы не можете начинать темы
    Вы не можете отвечать на сообщения
    Вы не можете редактировать свои сообщения
    Вы не можете удалять свои сообщения
    Вы не можете голосовать в опросах
    Вы не можете прикреплять файлы к сообщениям
    Вы можете скачивать файлы